Дорогая, это Индия / Oh Darling Yeh Hai India (Кетан Мехта / Ketan Mehta) [1995, Индия, Мелодрама, DVDRip] MVO (Формат AB)

Ответить на тему
 
Автор Сообщение

user ®

Стаж: 12 лет

Сообщений: 15124

Пост Пост: #1 от 25-Сен-2013 15:30

[Цитировать]

Дорогая, это Индия / Oh Darling Yeh Hai India
Страна: Индия
Жанр: Мелодрама, комедия
Год выпуска: 1995
Продолжительность: 02:35:26
Перевод: Профессиональный (многоголосый закадровый) Формат AB
Cубтитры: нет
Режиссер: Кетан Мехта / Ketan Mehta
В ролях: Шахрукх Кхан, Дипа Шахи, Амриш Пури, Джавед Джафери, Анупам Кхер, Том Алтер, Тинну Ананд, Садишив Амрапуркар, Кадер Кхан
Описание: Двое незнакомцев - юноша и девушка - случайно встречаются на улице Бомбея. Юноша голоден, а девушка грустит. Ей хочется развлечений, а ему - кушать. Они заключают сделку - еда в обмен на веселье. Вечер развлечений на кусок хлеба. Они гуляют по улицам, поют, танцуют, смеются и, вообще, наслаждаются жизнью, не зная о кризисе, который поражает страну. Президент вводит в стране чрезвычайное положение. Между тем, преступник заменяет президента его двойником, чтобы через него погрузить страну в насилие и террор. Юноша и девушка, вместе с друзьями, разоблачают двойника и, не смотря на трудности, спасают страну от бед.
Доп. информация: Исходник DVD-9 (СПАСИБО! Th4K)
Сэмпл: http://multi-up.com/906546
Качество видео: DVDRip
Формат видео: AVI
Видео: XviD build 50, 624x320 (1.95:1), 23.976 fps, 1144 kbps avg
Аудио: AC3 Dolby Digital, 48 kHz, 2/0 (L,R) ch, 192.00 kbps avg

MediaInfo

General
Complete name : D:\Dorogaya.eto.Indiya.1995.DVDRip-Dego.avi
Format : AVI
Format/Info : Audio Video Interleave
File size : 1.46 GiB
Duration : 2h 35mn
Overall bit rate : 1 346 Kbps
Writing application : VirtualDubMod 1.5.10.2 (build 2540/release)
Writing library : VirtualDubMod build 2540/release
Video
ID : 0
Format : MPEG-4 Visual
Format profile : AdvancedSimple@L5
Format settings, BVOP : Yes
Format settings, QPel : No
Format settings, GMC : No warppoints
Format settings, Matrix : Default (MPEG)
Codec ID : XVID
Codec ID/Hint : XviD
Duration : 2h 35mn
Bit rate : 1 145 Kbps
Width : 624 pixels
Height : 320 pixels
Display aspect ratio : 1.950
Frame rate : 23.976 fps
Resolution : 24 bits
Colorimetry : 4:2:0
Scan type : Progressive
Bits/(Pixel*Frame) : 0.239
Stream size : 1.24 GiB (85%)
Writing library : XviD 1.2.1 (UTC 2008-12-04)
Audio
ID : 1
Format : AC-3
Format/Info : Audio Coding 3
Codec ID : 2000
Duration : 2h 35mn
Bit rate mode : Constant
Bit rate : 192 Kbps
Channel(s) : 2 channels
Channel positions : L R
Sampling rate : 48.0 KHz
Stream size : 213 MiB (14%)
Alignment : Split accross interleaves
Interleave, duration : 42 ms (1.00 video frame)
Interleave, preload duration : 500 ms

Скриншоты

Скачать

Скачать торрент! Дорогая, это Индия / Oh Darling Yeh Hai India (Кетан Мехта / Ketan Mehta) [1995, Индия, Мелодрама, DVDRip] MVO (Формат AB)

Как скачивать? · Что такое торрент? · Рейтинг и ограничения

Сайт не распространяет и не хранит электронные версии произведений, а лишь предоставляет доступ к создаваемому пользователями каталогу ссылок на торрент-файлы, которые содержат только списки хеш-сумм

[Профиль] [ЛС]
Показать сообщения:    
Ответить на тему

Текущее время: Сегодня 13:41

Часовой пояс: GMT + 4



Вы не можете начинать темы
Вы не можете отвечать на сообщения
Вы не можете редактировать свои сообщения
Вы не можете удалять свои сообщения
Вы не можете голосовать в опросах
Вы не можете прикреплять файлы к сообщениям
Вы не можете скачивать файлы