Возвращение героя / The Last Stand (Ким Чжи Ун / Kim Ji Woon) [2013, США, боевик, триллер, криминал, BDRip-AVC] [US] Dub + Original (Eng) + Sub (Rus, Eng)

Ответить на тему
 
Автор Сообщение

user ®

Стаж: 7 лет 7 месяцев

Сообщений: 20008

Пост Пост: #1 от 24-Сен-2013 22:25

[Цитировать]

Возвращение героя / The Last Stand
Страна: США
Жанр: боевик, триллер, криминал
Год выпуска: 2013
Продолжительность: 01:47:13
Перевод: Профессиональный (дублированный)
Cубтитры: русские, английские
Оригинальная аудиодорожка: английский
Режиссер: Ким Чжи Ун
В ролях: Арнольд Шварценеггер, Форест Уитакер, Джонни Ноксвил, Родриго Санторо, Джейми Александр, Луис Гузман, Эдуардо Норьега, Петер Стормаре, Зэк Гилфорд, Генезис Родригез
Описание: Самая опасная и жестокая банда наркоторговцев сбегает из-под конвоя ФБР. Прихватив заложника, они мчатся к мексиканской границе на бронированной, оснащенной первоклассным вооружением машине. У них на пути стоит лишь тихий городок, за порядком в котором следит шериф Оуенс. Когда-то он был одним из лучших полицейских Лос-Анджелеса, и теперь он вернулся...

Исходник: Возвращение героя / The Last Stand (2013) 1080p BD-Remux
Качество видео: BDRip-AVC | sample
Формат видео: MKV
Видео кодек: x264
Видео: AVC 1200x500 (2.40:1), 23.976 fps, ~2900 Kbps, 0.20 bit/pixel
Аудио #1: Russian AC3 6ch 48kHz 448Kbps | Dub
Аудио #2: English AC3 6ch 48kHz 448Kbps | Original
Формат субтитров: softsub (SRT)
Главы: есть

MediaInfo | x264

x264

--[NoImage] raw [info]: 1200x500p 1:1 @ 24000/1001 fps (cfr)
--[NoImage] x264 [info]: using SAR=1/1
--[NoImage] x264 [info]: using cpu capabilities: MMX2 SSE2Fast SSEMisalign LZCNT
--[NoImage] x264 [info]: profile High, level 4.1
--[NoImage] x264 [info]: cabac=1 ref=11 deblock=1:-3:-3 analyse=0x3:0x113 me=umh subme=11 psy=1 fade_compensate=0.00 psy_rd=1.00:0.00 mixed_ref=1 me_range=48 chroma_me=1 trellis=2 8x8dct=1 cqm=0 deadzone=21,11 fast_pskip=1 chroma_qp_offset=-2 threads=6 lookahead_threads=1 sliced_threads=0 nr=0 decimate=1 interlaced=0 bluray_compat=0 constrained_intra=0 bframes=16 b_pyramid=2 b_adapt=2 b_bias=0 direct=1 weightb=1 open_gop=0 weightp=2 keyint=240 keyint_min=23 scenecut=40 intra_refresh=0 rc_lookahead=0 rc=crf mbtree=0 crf=17.5000 qcomp=0.60 qpmin=0 qpmax=69 qpstep=4 vbv_maxrate=50000 vbv_bufsize=62500 crf_max=0.0 nal_hrd=none ip_ratio=1.40 pb_ratio=1.30 aq=1:1.00 zones=144790,154243,q=30
--[NoImage] frames fps kb/s elapsed remain size est.size
--[NoImage] x264 [info]: frame I:1244 Avg QP:15.74 size: 74070
--[NoImage] x264 [info]: frame P:37723 Avg QP:17.81 size: 28349
--[NoImage] x264 [info]: frame B:115277 Avg QP:19.42 size: 10066
--[NoImage] x264 [info]: consecutive B-frames: 3.6% 6.5% 10.7% 21.2% 17.4% 27.7% 4.6% 1.9% 2.3% 1.1% 0.9% 0.6% 0.5% 0.5% 0.3% 0.1% 0.3%
--[NoImage] x264 [info]: mb I I16..4: 7.1% 75.3% 17.6%
--[NoImage] x264 [info]: mb P I16..4: 1.6% 15.9% 2.5% P16..4: 26.0% 32.6% 10.5% 0.0% 0.0% skip:10.8%
--[NoImage] x264 [info]: mb B I16..4: 0.2% 1.7% 0.3% B16..8: 34.6% 22.3% 3.6% direct: 4.4% skip:32.8% L0:43.4% L1:45.0% BI:11.5%
--[NoImage] x264 [info]: 8x8 transform intra:77.9% inter:63.7%
--[NoImage] x264 [info]: coded y,uvDC,uvAC intra: 84.3% 83.6% 65.0% inter: 23.1% 18.2% 5.5%
--[NoImage] x264 [info]: i16 v,h,dc,p: 35% 25% 3% 37%
--[NoImage] x264 [info]: i8 v,h,dc,ddl,ddr,vr,hd,vl,hu: 9% 9% 6% 10% 13% 13% 14% 12% 15%
--[NoImage] x264 [info]: i4 v,h,dc,ddl,ddr,vr,hd,vl,hu: 26% 12% 6% 6% 12% 11% 10% 8% 10%
--[NoImage] x264 [info]: i8c dc,h,v,p: 39% 26% 17% 18%
--[NoImage] x264 [info]: Weighted P-Frames: Y:3.1% UV:2.0%
--[NoImage] x264 [info]: ref P L0: 48.1% 9.5% 17.2% 6.5% 5.2% 3.7% 3.2% 1.8% 1.7% 1.4% 1.4% 0.3% 0.0%
--[NoImage] x264 [info]: ref B L0: 71.8% 12.2% 6.0% 3.1% 2.2% 1.8% 1.3% 0.9% 0.5% 0.2%
--[NoImage] x264 [info]: ref B L1: 92.4% 7.6%
--[NoImage] x264 [info]: kb/s:2887.48
General
Complete name : E:\...\The.Last.Stand.2013.US.BDRip.x264.DD5.1.Rus.Eng-E76.mkv
Format : Matroska
Format version : Version 4 / Version 2
File size : 2.84 GiB
Duration : 1h 47mn
Overall bit rate : 3 786 Kbps
Movie name : The.Last.Stand.2013.US.BDRip.x264.DD5.1.Rus.Eng-E76
Encoded date : UTC 2013-05-11 09:55:54
Writing application : mkvmerge v6.1.0 ('Old Devil') built on Mar 2 2013 14:32:37
Writing library : libebml v1.3.0 + libmatroska v1.4.0
Video
ID : 1
Format : AVC
Format/Info : Advanced Video Codec
Format profile : High@L4.1
Format settings, CABAC : Yes
Format settings, ReFrames : 11 frames
Codec ID : V_MPEG4/ISO/AVC
Bit rate : 2 814 Kbps
Width : 1 200 pixels
Height : 500 pixels
Display aspect ratio : 2.40:1
Frame rate mode : Variable
Original frame rate : 23.976 fps
Color space : YUV
Chroma subsampling : 4:2:0
Bit depth : 8 bits
Scan type : Progressive
Title : Encode by Enclave76
Writing library : x264 core 130 r2273kMod b3065e6
Encoding settings : cabac=1 / ref=11 / deblock=1:-3:-3 / analyse=0x3:0x113 / me=umh / subme=11 / psy=1 / fade_compensate=0.00 / psy_rd=1.00:0.00 / mixed_ref=1 / me_range=48 / chroma_me=1 / trellis=2 / 8x8dct=1 / cqm=0 / deadzone=21,11 / fast_pskip=1 / chroma_qp_offset=-2 / threads=6 / lookahead_threads=1 / sliced_threads=0 / nr=0 / decimate=1 / interlaced=0 / bluray_compat=0 / constrained_intra=0 / bframes=16 / b_pyramid=2 / b_adapt=2 / b_bias=0 / direct=1 / weightb=1 / open_gop=0 / weightp=2 / keyint=240 / keyint_min=23 / scenecut=40 / intra_refresh=0 / rc_lookahead=0 / rc=crf / mbtree=0 / crf=17.5000 / qcomp=0.60 / qpmin=0 / qpmax=69 / qpstep=4 / vbv_maxrate=50000 / vbv_bufsize=62500 / crf_max=0.0 / nal_hrd=none / ip_ratio=1.40 / pb_ratio=1.30 / aq=1:1.00 / zones=144790,154243,q=30
Language : English
Default : No
Forced : No
Matrix coefficients : BT.709
Audio #1
ID : 2
Format : AC-3
Format/Info : Audio Coding 3
Mode extension : CM (complete main)
Format settings, Endianness : Big
Codec ID : A_AC3
Duration : 1h 47mn
Bit rate mode : Constant
Bit rate : 448 Kbps
Channel(s) : 6 channels
Channel positions : Front: L C R, Side: L R, LFE
Sampling rate : 48.0 KHz
Bit depth : 16 bits
Compression mode : Lossy
Stream size : 344 MiB (12%)
Title : Dub
Language : Russian
Default : Yes
Forced : No
Audio #2
ID : 3
Format : AC-3
Format/Info : Audio Coding 3
Mode extension : CM (complete main)
Format settings, Endianness : Big
Codec ID : A_AC3
Duration : 1h 47mn
Bit rate mode : Constant
Bit rate : 448 Kbps
Channel(s) : 6 channels
Channel positions : Front: L C R, Side: L R, LFE
Sampling rate : 48.0 KHz
Bit depth : 16 bits
Compression mode : Lossy
Stream size : 344 MiB (12%)
Title : Original
Language : English
Default : No
Forced : No
Text #1
ID : 4
Format : UTF-8
Codec ID : S_TEXT/UTF8
Codec ID/Info : UTF-8 Plain Text
Language : Russian
Default : No
Forced : No
Text #2
ID : 5
Format : UTF-8
Codec ID : S_TEXT/UTF8
Codec ID/Info : UTF-8 Plain Text
Language : English
Default : No
Forced : No
Text #3
ID : 6
Format : UTF-8
Codec ID : S_TEXT/UTF8
Codec ID/Info : UTF-8 Plain Text
Title : SDH
Language : English
Default : No
Forced : No
Menu
00:00:00.000 : :Chapter 01
00:03:57.028 : :Chapter 02
...
01:34:31.332 : :Chapter 16
Скачать

Скачать торрент!

Как скачивать? · Что такое торрент? · Рейтинг и ограничения

Сайт не распространяет и не хранит электронные версии произведений, а лишь предоставляет доступ к создаваемому пользователями каталогу ссылок на торрент-файлы, которые содержат только списки хеш-сумм

[Профиль] [ЛС]
Показать сообщения:    
Ответить на тему

Текущее время: Сегодня 12:11

Часовой пояс: GMT + 4



Вы не можете начинать темы
Вы не можете отвечать на сообщения
Вы не можете редактировать свои сообщения
Вы не можете удалять свои сообщения
Вы не можете голосовать в опросах
Вы не можете прикреплять файлы к сообщениям
Вы не можете скачивать файлы