Тяжелый случай / Hard Luck (Марио Ван Пиблз / Mario Van Peebles) [2006, США, триллер, драма, криминал, WEB-DL 720p] MVO + Original + subs (Rus, Eng)

Ответить на тему
 
Автор Сообщение

user ®

Стаж: 7 лет 7 месяцев

Сообщений: 20008

Пост Пост: #1 от 24-Сен-2013 02:10

[Цитировать]

Тяжелый случай / Hard Luck- Год выпуска: 2006
Страна: США
Жанр: триллер, драма, криминал
Продолжительность: 01:41:20
Перевод: Профессиональный (многоголосый, закадровый)
Оригинальная звуковая дорожка: английский
Cубтитры: English, Russian-Режиссер: Марио Ван Пиблз / Mario Van Peebles
В ролях: Уэсли Снайпс, Джеки Киньонес, Сибилл Шепард, Джеймс Хироюки Лиао, Обри Доллар, Кевин Томс, Адриан Вашингтон, Ной Флайсс, Билл Коббс, Кевин Чэпмен
О фильме: Торговец наркотиками решает завязать со своим преступным прошлым и зажить порядочной жизнью, став честным и всеми уважаемым гражданином. Но все его благие намерения идут прахом, когда он соглашается прийти на день рождения своего приятеля-гангстера.
Вновь оказавшись в самом центре разборок между уголовными преступниками и продажными полицейскими, он бежит с вечеринки, прихватив с собой красавицу-танцовщицу и чемоданчик, доверху набитый долларами. Спасаясь от преследования, он мчится навстречу своей судьбе, уготовившей ему невероятные приключения...-Релиз: by kuku5hka
Формат: MKV
Видео: 1280x542 at 23.976 fps, MPEG-4 AVC, ~3894 kbps avg
Аудио #1: Russian: 48 kHz, AC3, 3/2 (L,C,R,l,r) + LFE ch, ~448 kbps avg |Многоголосый закадровый|
Аудио #2: English: 48 kHz, AC3, 3/2 (L,C,R,l,r) + LFE ch, ~448 kbps avg
Семпл-

Скриншоты


-

mInfo


Формат : Matroska
Версия формата : Version 4 / Version 2
Размер файла : 3,39 Гбайт
Продолжительность : 1 ч. 41 м.
Общий поток : 4793 Кбит/сек
Дата кодирования : UTC 2013-09-22 14:32:31
Программа кодирования : mkvmerge v6.1.0 ('Old Devil') built on Mar 2 2013 14:32:37
Библиотека кодирования : libebml v1.3.0 + libmatroska v1.4.0
Видео
Идентификатор : 1
Формат : AVC
Формат/Информация : Advanced Video Codec
Профиль формата : Main@L3.1
Параметр CABAC формата : Нет
Параметр ReFrames формата : 2 кадра
Идентификатор кодека : V_MPEG4/ISO/AVC
Продолжительность : 1 ч. 41 м.
Битрейт : 3801 Кбит/сек
Ширина : 1280 пикселей
Высота : 542 пикселя
Соотношение сторон : 2,35:1
Режим частоты кадров : Постоянный
Частота кадров : 23,976 кадра/сек
Цветовое пространство : YUV
Субдискретизация насыщенности : 4:2:0
Битовая глубина : 8 бит
Тип развёртки : Прогрессивная
Бит/(Пиксели*Кадры) : 0.229
Размер потока : 2,69 Гбайт (79%)
Язык : English
Default : Да
Forced : Нет
Основные цвета : BT.709
Характеристики трансфера : BT.709
Коэффициенты матрицы : BT.709
Аудио #1
Идентификатор : 2
Формат : AC-3
Формат/Информация : Audio Coding 3
Расширение режима : CM (complete main)
Параметр Endianness формата : Big
Идентификатор кодека : A_AC3
Продолжительность : 1 ч. 41 м.
Вид битрейта : Постоянный
Битрейт : 448 Кбит/сек
Каналы : 6 каналов
Расположение каналов : Front: L C R, Side: L R, LFE
Частота : 48,0 КГц
Битовая глубина : 16 бит
Метод сжатия : С потерями
Размер потока : 325 Мбайт (9%)
Заголовок : MVO AC3 5.1 448 kbps
Язык : Russian
Default : Да
Forced : Нет
Аудио #2
Идентификатор : 3
Формат : AC-3
Формат/Информация : Audio Coding 3
Расширение режима : CM (complete main)
Параметр Endianness формата : Big
Идентификатор кодека : A_AC3
Продолжительность : 1 ч. 41 м.
Вид битрейта : Постоянный
Битрейт : 448 Кбит/сек
Каналы : 6 каналов
Расположение каналов : Front: L C R, Side: L R, LFE
Частота : 48,0 КГц
Битовая глубина : 16 бит
Метод сжатия : С потерями
Размер потока : 325 Мбайт (9%)
Заголовок : AC3 5.1 448 kbps
Язык : English
Default : Нет
Forced : Нет
Текст #1
Идентификатор : 4
Формат : UTF-8
Идентификатор кодека : S_TEXT/UTF8
Идентификатор кодека/Информация : UTF-8 Plain Text
Язык : English
Default : Нет
Forced : Нет
Текст #2
Идентификатор : 5
Формат : UTF-8
Идентификатор кодека : S_TEXT/UTF8
Идентификатор кодека/Информация : UTF-8 Plain Text
Язык : Russian
Default : Нет
Forced : Нет
Меню
00:00:00.000 : en:Start
00:04:35.000 : en:King of the City
00:07:41.000 : en:Top Associate
00:10:39.000 : en:Finding His Groove
00:13:10.000 : en:Reason to Celebrate
00:18:00.000 : en:Play the Hand
00:25:11.000 : en:Taking it Off
00:28:04.000 : en:Home Remedies
00:32:14.000 : en:Mothering
00:37:36.000 : en:Getting Away Clean
00:40:21.000 : en:Dirty Money
00:43:30.000 : en:Interesting Relations
00:46:05.000 : en:A Whole New Level
00:50:14.000 : en:Scamming Up
00:53:37.000 : en:Impulsive Actions
00:54:42.000 : en:Casting Call
00:59:25.000 : en:The Shake and Take
01:04:12.000 : en:Detective Findings
01:08:20.000 : en:No One Home
01:12:37.000 : en:Shotgun Shack
01:18:10.000 : en:First in Line
01:21:09.000 : en:Meant to Be
01:23:28.000 : en:It Is Showtime
01:25:37.000 : en:A Lot to Lose
01:29:14.000 : en:Time for Justice
01:30:26.000 : en:Big Money
01:31:55.000 : en:Sawtooth Deal
01:35:41.000 : en:Lucky Day
-
Скачать

Скачать торрент!

Как скачивать? · Что такое торрент? · Рейтинг и ограничения

Сайт не распространяет и не хранит электронные версии произведений, а лишь предоставляет доступ к создаваемому пользователями каталогу ссылок на торрент-файлы, которые содержат только списки хеш-сумм

[Профиль] [ЛС]
Показать сообщения:    
Ответить на тему

Текущее время: Сегодня 22:22

Часовой пояс: GMT + 4



Вы не можете начинать темы
Вы не можете отвечать на сообщения
Вы не можете редактировать свои сообщения
Вы не можете удалять свои сообщения
Вы не можете голосовать в опросах
Вы не можете прикреплять файлы к сообщениям
Вы не можете скачивать файлы