Лето. Пляж. Кино / Teen Beach Movie (Джеффри Хорнадэй / Jeffrey Hornaday) [2013, США, мюзикл, семейный, WEB-DL 1080p] DUB + Original (Eng) + Sub (eng)

Ответить на тему
 
Автор Сообщение

user ®

Стаж: 7 лет 7 месяцев

Сообщений: 20008

Пост Пост: #1 от 24-Сен-2013 02:10

[Цитировать]

Лето. Пляж. Кино
Teen Beach Movie
Страна: США
Год выпуска: 2013
Жанр: мюзикл, семейный
Продолжительность: 01:35:04
Перевод: Профессиональный (Дублированный) [Канал Disney]
русские субтитры: нет-Режиссёр: Джеффри Хорнадэй : Jeffrey Hornaday
В главных ролях: Росс Линч, Майя Митчелл, Грэйс Фиппс, Гари Клэйтон, Джон ДеЛюка, Крисси Фит, Сюзанн Крайер, Бэрри Боствик, Кевин Чэмберлин, Стив Валентайн-Описание: Последний день лета подходит к концу, а поклонники сёрфинга Маккензи и ее друг Брейди никак не хотят уходить с пляжа. Под вечер они ловят огромную волну, которая переносит их не только в пространстве, но и во времени — на полстолетия назад! Здесь, в 60-х, друзья оказываются в центре противостояния двух шумных компаний — сёрферов и рокеров. Оказывается, всё, что происходит вокруг, — не что иное, как известный ретро-мюзикл. У Маккензи и Брейди есть только один шанс попасть обратно домой — вернуть музыкальную историю в прежнее русло. Для этого ребятам предстоит освоить язык песни и танца.- -Качество: WEB-DL 1080p
Формат: MKV
Видео кодек: AVC
Аудио кодек: АС3
Видео: 1920x1080, 23.976 fps, ~4 926 kbps avg, 0.099 bit/pixel
Аудио #1: [RUS] 48 kHz, AC3 Dolby Digital, 2/0 (L,R) ch, ~192 kbps kbps
Аудио #2: [ENG] 48 kHz, AC3 Dolby Digital, 3/2 (L,C,R,l,r) + LFE ch, ~384 kbps
субтитры: английские

скриншоты

MediaInfo

Общее
Уникальный идентификатор : 246434510900978775179502186460936022202 (0xB9658F758D7D6633851BD480226628BA)
Полное имя : D:\Im\Лето. Пляж. Кино\Teen Beach Movie.2013.WEB-DL 1080p.mkv
Формат : Matroska
Версия формата : Version 4 / Version 2
Размер файла : 3,73 Гбайт
Продолжительность : 1 ч. 35 м.
Общий поток : 5614 Кбит/сек
Дата кодирования : UTC 2013-09-22 20:22:23
Программа кодирования : mkvmerge v6.4.1 ('Omega Point') built on Sep 16 2013 22:05:10
Библиотека кодирования : libebml v1.3.0 + libmatroska v1.4.1
Видео
Идентификатор : 1
Формат : AVC
Формат/Информация : Advanced Video Codec
Профиль формата : High@L4.0
Параметр CABAC формата : Да
Параметр ReFrames формата : 4 кадра
Идентификатор кодека : V_MPEG4/ISO/AVC
Продолжительность : 1 ч. 35 м.
Битрейт : 4926 Кбит/сек
Ширина : 1920 пикселей
Высота : 1080 пикселей
Соотношение сторон : 16:9
Частота кадров : 23,976 кадра/сек
Цветовое пространство : YUV
Субдискретизация насыщенности : 4:2:0
Битовая глубина : 8 бит
Тип развёртки : Прогрессивная
Бит/(Пиксели*Кадры) : 0.099
Размер потока : 3,27 Гбайт (88%)
Язык : English
Default : Да
Forced : Нет
Основные цвета : BT.709-5, BT.1361, IEC 61966-2-4, SMPTE RP177
Характеристики трансфера : BT.709-5, BT.1361
Коэффициенты матрицы : BT.709-5, BT.1361, IEC 61966-2-4 709, SMPTE RP177
Аудио #1
Идентификатор : 2
Формат : AC-3
Формат/Информация : Audio Coding 3
Расширение режима : CM (complete main)
Идентификатор кодека : A_AC3
Продолжительность : 1 ч. 35 м.
Вид битрейта : Постоянный
Битрейт : 192 Кбит/сек
Каналы : 2 канала
Расположение каналов : Front: L R
Частота : 48,0 КГц
Битовая глубина : 16 бит
Метод сжатия : С потерями
Размер потока : 131 Мбайт (3%)
Заголовок : DUB
Язык : Russian
Default : Да
Forced : Нет
Аудио #2
Идентификатор : 3
Формат : AC-3
Формат/Информация : Audio Coding 3
Расширение режима : CM (complete main)
Идентификатор кодека : A_AC3
Продолжительность : 1 ч. 35 м.
Вид битрейта : Постоянный
Битрейт : 384 Кбит/сек
Каналы : 6 каналов
Расположение каналов : Front: L C R, Side: L R, LFE
Частота : 48,0 КГц
Битовая глубина : 16 бит
Метод сжатия : С потерями
Размер потока : 261 Мбайт (7%)
Заголовок : ENG
Язык : English
Default : Нет
Forced : Нет
Текст
Идентификатор : 4
Формат : UTF-8
Идентификатор кодека : S_TEXT/UTF8
Идентификатор кодека/Информация : UTF-8 Plain Text
Заголовок : Eng Sub
Язык : English
Default : Нет
Forced : Нет
Скачать

Скачать торрент!

Как скачивать? · Что такое торрент? · Рейтинг и ограничения

Сайт не распространяет и не хранит электронные версии произведений, а лишь предоставляет доступ к создаваемому пользователями каталогу ссылок на торрент-файлы, которые содержат только списки хеш-сумм

[Профиль] [ЛС]
Показать сообщения:    
Ответить на тему

Текущее время: Сегодня 15:37

Часовой пояс: GMT + 4



Вы не можете начинать темы
Вы не можете отвечать на сообщения
Вы не можете редактировать свои сообщения
Вы не можете удалять свои сообщения
Вы не можете голосовать в опросах
Вы не можете прикреплять файлы к сообщениям
Вы не можете скачивать файлы