Адское дитя / Дьяволёнок / Hell Baby (Роберт Бен Гарант / Robert Ben Garant) [2013, США, ужасы, комедия, WEB-DL 720p] VO + Original (Eng) + Sub (eng)

Ответить на тему
 
Автор Сообщение

user ®

Стаж: 7 лет 7 месяцев

Сообщений: 20008

Пост Пост: #1 от 24-Сен-2013 02:10

[Цитировать]

Адское дитя : Hell Baby«The Devil got a baby mama.» Страна: США
Год выпуска: 2013
Жанр: ужасы, комедия
Продолжительность: 01:34:00
Перевод: Одноголосый закадровый [den904] по переводу [Антона Кедрова]
русские субтитры: нет-Режиссёр: Роберт Бен Гарант : Robert Ben Garant
В главных ролях: Роб Кордри, Лесли Бибб, Кигэн Майкл Ки, Рики Линдхоум, Роб Хюбел, Пол Шеер, Роберт Бен Гарант, Томас Леннон, Майкл Йен Блэк, Кумэйл Нанджиани-Описание: Молодая пара, со дня на день ждущая появления на свет своего первенца, въезжает в, мягко выражаясь, не самый новый и не самый крепкий в Новом Орлеане дом. Переезд ознаменовывается тем, что вскоре будущие родители уже вызывают к себе элитных ватиканских экзорцистов, надеясь, что они спасут их от младенца-демона.- -Качество: WEB-DL 720p
Формат: MKV
Видео кодек: AVC
Аудио кодек: АС3
Видео: 1280x718, 23.976 fps, ~3 740 kbps avg, 0.170 bit/pixel
Аудио #1: [RUS] 48 kHz, AC3 Dolby Digital, 2/0 (L,R) ch, ~192 kbps kbps
Аудио #2: [ENG] 48 kHz, AC3 Dolby Digital, 3/2 (L,C,R,l,r) + LFE ch, ~384 kbps
субтитры: английские
навигация по главам: 10 глав

скриншоты

MediaInfo

Общее
Уникальный идентификатор : 194598356035631937514550479214763964764 (0x926647B4BFA6323D95D0432861A5F95C)
Полное имя : D:\Im\Адское дитя\Hell Baby.2013.WEB-DL 720p.mkv
Формат : Matroska
Версия формата : Version 4 / Version 2
Размер файла : 2,89 Гбайт
Продолжительность : 1 ч. 34 м.
Общий поток : 4404 Кбит/сек
Дата кодирования : UTC 2013-09-23 19:39:10
Программа кодирования : mkvmerge v6.4.1 ('Omega Point') built on Sep 16 2013 22:05:10
Библиотека кодирования : libebml v1.3.0 + libmatroska v1.4.1
Видео
Идентификатор : 1
Формат : AVC
Формат/Информация : Advanced Video Codec
Профиль формата : High@L3.1
Параметр CABAC формата : Нет
Параметр ReFrames формата : 2 кадра
Идентификатор кодека : V_MPEG4/ISO/AVC
Продолжительность : 1 ч. 34 м.
Битрейт : 3740 Кбит/сек
Ширина : 1280 пикселей
Высота : 718 пикселей
Соотношение сторон : 16:9
Частота кадров : 23,976 кадра/сек
Цветовое пространство : YUV
Субдискретизация насыщенности : 4:2:0
Битовая глубина : 8 бит
Тип развёртки : Прогрессивная
Бит/(Пиксели*Кадры) : 0.170
Размер потока : 2,46 Гбайт (85%)
Язык : English
Default : Да
Forced : Нет
Основные цвета : BT.709-5, BT.1361, IEC 61966-2-4, SMPTE RP177
Характеристики трансфера : BT.709-5, BT.1361
Коэффициенты матрицы : BT.709-5, BT.1361, IEC 61966-2-4 709, SMPTE RP177
Аудио #1
Идентификатор : 2
Формат : AC-3
Формат/Информация : Audio Coding 3
Расширение режима : CM (complete main)
Идентификатор кодека : A_AC3
Продолжительность : 1 ч. 34 м.
Вид битрейта : Постоянный
Битрейт : 192 Кбит/сек
Каналы : 2 канала
Расположение каналов : Front: L R
Частота : 48,0 КГц
Битовая глубина : 16 бит
Метод сжатия : С потерями
Размер потока : 129 Мбайт (4%)
Заголовок : VO [den904]
Язык : Russian
Default : Да
Forced : Нет
Аудио #2
Идентификатор : 3
Формат : AC-3
Формат/Информация : Audio Coding 3
Расширение режима : CM (complete main)
Идентификатор кодека : A_AC3
Продолжительность : 1 ч. 34 м.
Вид битрейта : Постоянный
Битрейт : 384 Кбит/сек
Каналы : 6 каналов
Расположение каналов : Front: L C R, Side: L R, LFE
Частота : 48,0 КГц
Битовая глубина : 16 бит
Метод сжатия : С потерями
Размер потока : 258 Мбайт (9%)
Заголовок : ENG
Язык : English
Default : Нет
Forced : Нет
Текст
Идентификатор : 4
Формат : UTF-8
Идентификатор кодека : S_TEXT/UTF8
Идентификатор кодека/Информация : UTF-8 Plain Text
Заголовок : Eng Sub
Язык : English
Default : Нет
Forced : Нет
Меню
00:00:00.000 : en:Chapter 1
00:08:25.000 : en:Chapter 2
00:21:07.000 : en:Chapter 3
00:30:00.000 : en:Chapter 4
00:37:52.000 : en:Chapter 5
00:50:27.000 : en:Chapter 6
01:01:45.000 : en:Chapter 7
01:11:46.000 : en:Chapter 8
01:20:24.000 : en:Chapter 9
01:28:56.000 : en:Chapter 10
Скачать

Скачать торрент!

Как скачивать? · Что такое торрент? · Рейтинг и ограничения

Сайт не распространяет и не хранит электронные версии произведений, а лишь предоставляет доступ к создаваемому пользователями каталогу ссылок на торрент-файлы, которые содержат только списки хеш-сумм

[Профиль] [ЛС]
Показать сообщения:    
Ответить на тему

Текущее время: Сегодня 02:25

Часовой пояс: GMT + 4



Вы не можете начинать темы
Вы не можете отвечать на сообщения
Вы не можете редактировать свои сообщения
Вы не можете удалять свои сообщения
Вы не можете голосовать в опросах
Вы не можете прикреплять файлы к сообщениям
Вы не можете скачивать файлы