Правосудие убийцы / Judgement of an Assassin / Jue sha ling (Сунь Чжун / Sun Chung) [1977, Гонконг, боевые искусства, DVDRip] VO (Виктор Береговых)

Ответить на тему
 
Автор Сообщение

user ®

Стаж: 11 лет

Сообщений: 15151

Пост Пост: #1 от 22-Сен-2013 14:35

[Цитировать]

Правосудие убийцы / Judgement of an Assassin / Jue sha ling
Страна: Гонконг
Жанр: боевые искусства
Год выпуска: 1977
Продолжительность: 01:31:43
Перевод: Одноголосый закадровый Виктор Береговых
Cубтитры: нет
Режиссер: Сунь Чжун / Sun Chung
В ролях: Дэвид Чианг, Чун Ва, Майкл Чан, Ку Фэн, Цзин Ли, Вэй Хун, Ван Лай, Чин Мяо, Лю Хуэйлин, Ай Фэй
Описание: Глава клана Бай Ду, негодяй по прозвищу Кровавый дьявол, был изгнан из мира боевых искусств другими кланами. Прошло 20 лет и клан Бай Ду потерял своё былое величие. Все эти годы Кровавый дьявол совершенствовал своё мастерство и копил ненависть к другим кланам. Пришло время мести и Кровавый дьявол убивает всех членов клана Золотого топора, подставляя при этом клан Хан Си, свалив всю вину на него. Цель негодяя - перессорить кланы и в завязавшейся войне вернуть былое величие клана Бай Ду... (В. Береговых)
Благодарность: За исходник, озвучивание и описание благодарность выражается Виктору Береговых, за перевод - Parthorisian.
Сэмпл: http://multi-up.com/905691
Качество видео: DVDRip
Формат видео: AVI
Видео: 720x304 (2.37:1), 23.976 fps, XviD build 50 ~2084 kbps avg, 0.40 bit/pixel
Аудио: 48 kHz, AC3 Dolby Digital, 2/0 (L,R) ch, ~192 kbps

MediaInfo

Format : AVI
Format/Info : Audio Video Interleave
File size : 1,46 Гбайт
Duration : 1 ч. 31 м.
Overall bit rate : 2286 Кбит/сек
Writing application : VirtualDubMod 1.5.10.3 | www.virtualdub-fr.org || (build 2550/release)
Writing library : VirtualDubMod build 2550/release
Видео
ID : 0
Format : MPEG-4 Visual
Format profile : Advanced Simple@L5
Format settings, BVOP : 2
Format settings, QPel : Нет
Format settings, GMC : Без точки перехода
Format settings, Matrix : Default (MPEG)
Codec ID : XVID
Codec ID/Hint : XviD
Duration : 1 ч. 31 м.
Bit rate : 2085 Кбит/сек
Width : 720 пикселей
Height : 304 пикселя
Display aspect ratio : 2,35:1
Frame rate : 23,976 кадра/сек
Color space : YUV
Chroma subsampling : 4:2:0
Bit depth : 8 бит
Scan type : Прогрессивная
Compression mode : С потерями
Bits/(Pixel*Frame) : 0.397
Stream size : 1,34 Гбайт (91%)
Writing library : XviD 1.2.1 (UTC 2008-12-04)
Аудио
ID : 1
Format : AC-3
Format/Info : Audio Coding 3
Mode extension : CM (complete main)
Format settings, Endianness : Big
Codec ID : 2000
Duration : 1 ч. 31 м.
Bit rate mode : Постоянный
Bit rate : 192 Кбит/сек
Channel(s) : 2 канала
Channel positions : Front: L R
Sampling rate : 48,0 КГц
Bit depth : 16 бит
Compression mode : С потерями
Stream size : 126 Мбайт (8%)
Alignment : Разделение по промежуткам
Interleave, duration : 42 мс. (1,00 видеокадр)
Interleave, preload duration : 500 мс.

Скриншот c названием фильма

Скриншоты

Скачать

Скачать торрент! Правосудие убийцы / Judgement of an Assassin / Jue sha ling (Сунь Чжун / Sun Chung) [1977, Гонконг, боевые искусства, DVDRip] VO (Виктор Береговых)

Как скачивать? · Что такое торрент? · Рейтинг и ограничения

Сайт не распространяет и не хранит электронные версии произведений, а лишь предоставляет доступ к создаваемому пользователями каталогу ссылок на торрент-файлы, которые содержат только списки хеш-сумм

[Профиль] [ЛС]
Показать сообщения:    
Ответить на тему

Текущее время: Сегодня 06:01

Часовой пояс: GMT + 4



Вы не можете начинать темы
Вы не можете отвечать на сообщения
Вы не можете редактировать свои сообщения
Вы не можете удалять свои сообщения
Вы не можете голосовать в опросах
Вы не можете прикреплять файлы к сообщениям
Вы не можете скачивать файлы