Мерзлая земля / The Frozen Ground (Скотт Уокер / Scott Walker) [2013, США, триллер, криминал, биография, BDRip 720p] Dub + Sub (Eng) + Original (Eng)

Ответить на тему
 
Автор Сообщение

user ®

Стаж: 7 лет 7 месяцев

Сообщений: 20008

Пост Пост: #1 от 22-Сен-2013 14:35

[Цитировать]

Мерзлая земля / The Frozen Ground Страна: США
Жанр: триллер, криминал, биография
Год выпуска: 2013
Продолжительность: 01:45:34
Cубтитры: английские
Оригинальная аудиодорожка: английская
Режиссер: Скотт Уокер / Scott Walker
В ролях: Николас Кейдж, Джон Кьюсак, Ванесса Энн Хадженс, Дин Норрис, Рада Митчелл, Джоди Лин О’Кифи, Кэтрин ЛаНаса, Фифти Сент, Джина Мантенья, Мэтт Джералд
Описание: Все были уверены, что Роберт Хансен — приличный семьянин, владелец пекарни и славный охотник. Никто не подозревал, что на самом деле он — безжалостный маньяк, который похитил и убил более двадцати женщин. И только 17-летней Синди Полсон удалось сбежать от убийцы. Она наводит на след маньяка полицейского, который начинает опасное расследование. Ему никто не верит: Хансен — слишком приличный человек для такого обвинения… Но упорный коп знает свое дело и должен дойти до конца…

Качество видео: BDRip 720p [CHD]
Формат видео: MKV
Видео: х264, 1280x534 (2.40:1), 23.976 fps, 4400 Кbps, 0.268 bit/pixel
Аудио 1: 48 kHz, AC3 Dolby Digital, 3/2 (L,C,R,l,r) + LFE ch, ~384 kbps [rus]
Аудио 2: 48 kHz, DTS, 3/2 (L,C,R,l,r) + LFE ch, ~1536 kbps [eng]

MediaInfo

Complete name : The.Frozen.Ground.2013.x264.BDRip.720p-CHD.mkv
Format : Matroska
Format version : Version 4 / Version 2
File size : 4.63 GiB
Duration : 1h 45mn
Overall bit rate : 6 283 Kbps
Movie name : The.Frozen.Ground.2013.BluRay.720p.DTS.x264-CHD
Encoded date : UTC 2013-09-21 16:20:07
Writing application : mkvmerge v6.4.1 ('Omega Point') built on Sep 16 2013 22:05:10
Writing library : libebml v1.3.0 + libmatroska v1.4.1
Video
ID : 1
Format : AVC
Format/Info : Advanced Video Codec
Format profile : High@L4.1
Format settings, CABAC : Yes
Format settings, ReFrames : 10 frames
Codec ID : V_MPEG4/ISO/AVC
Duration : 1h 45mn
Bit rate : 4 400 Kbps
Width : 1 280 pixels
Height : 534 pixels
Display aspect ratio : 2.40:1
Frame rate mode : Constant
Frame rate : 23.976 fps
Color space : YUV
Chroma subsampling : 4:2:0
Bit depth : 8 bits
Scan type : Progressive
Bits/(Pixel*Frame) : 0.268
Stream size : 3.15 GiB (68%)
Title : The Frozen Ground (2013)
Writing library : x264 core 138 r2356 a1d3d17
Encoding settings : cabac=1 / ref=10 / deblock=1:-3:-3 / analyse=0x3:0x113 / me=umh / subme=10 / psy=1 / psy_rd=1.00:0.05 / mixed_ref=1 / me_range=32 / chroma_me=1 / trellis=2 / 8x8dct=1 / cqm=0 / deadzone=21,11 / fast_pskip=0 / chroma_qp_offset=-2 / threads=18 / lookahead_threads=1 / sliced_threads=0 / nr=0 / decimate=1 / interlaced=0 / bluray_compat=0 / constrained_intra=0 / bframes=4 / b_pyramid=2 / b_adapt=2 / b_bias=0 / direct=3 / weightb=1 / open_gop=0 / weightp=2 / keyint=250 / keyint_min=23 / scenecut=40 / intra_refresh=0 / rc=2pass / mbtree=0 / bitrate=4400 / ratetol=1.0 / qcomp=0.70 / qpmin=0 / qpmax=69 / qpstep=4 / cplxblur=20.0 / qblur=0.5 / ip_ratio=1.40 / pb_ratio=1.30 / aq=2:1.00
Language : English
Default : Yes
Forced : No
Audio #1
ID : 2
Format : AC-3
Format/Info : Audio Coding 3
Mode extension : CM (complete main)
Format settings, Endianness : Big
Codec ID : A_AC3
Duration : 1h 45mn
Bit rate mode : Constant
Bit rate : 384 Kbps
Channel count : 6 channels
Channel positions : Front: L C R, Side: L R, LFE
Sampling rate : 48.0 KHz
Bit depth : 16 bits
Compression mode : Lossy
Stream size : 290 MiB (6%)
Title : [DUB] AC3, 6 ch, 384 kbps
Language : Russian
Default : Yes
Forced : No
Audio #2
ID : 3
Format : DTS
Format/Info : Digital Theater Systems
Mode : 16
Format settings, Endianness : Big
Codec ID : A_DTS
Duration : 1h 45mn
Bit rate mode : Constant
Bit rate : 1 509 Kbps
Channel count : 6 channels
Channel positions : Front: L C R, Side: L R, LFE
Sampling rate : 48.0 KHz
Bit depth : 24 bits
Compression mode : Lossy
Stream size : 1.11 GiB (24%)
Title : DTS, 6 ch, 1536 kbps
Language : English
Default : No
Forced : No
Text
ID : 4
Format : UTF-8
Codec ID : S_TEXT/UTF8
Codec ID/Info : UTF-8 Plain Text
Language : English
Default : No
Forced : No
Encoder.........: chp@CHD
x264 [info]: frame I:1473 Avg QP:11.99 size:100536
x264 [info]: frame P:44627 Avg QP:14.13 size: 37967
x264 [info]: frame B:105768 Avg QP:16.33 size: 15427

Скриншоты


Скачать

Скачать торрент!

Как скачивать? · Что такое торрент? · Рейтинг и ограничения

Сайт не распространяет и не хранит электронные версии произведений, а лишь предоставляет доступ к создаваемому пользователями каталогу ссылок на торрент-файлы, которые содержат только списки хеш-сумм

[Профиль] [ЛС]
Показать сообщения:    
Ответить на тему

Текущее время: Сегодня 18:10

Часовой пояс: GMT + 4



Вы не можете начинать темы
Вы не можете отвечать на сообщения
Вы не можете редактировать свои сообщения
Вы не можете удалять свои сообщения
Вы не можете голосовать в опросах
Вы не можете прикреплять файлы к сообщениям
Вы не можете скачивать файлы