Месть / Pimp Bullies (Альфонсо Родригес / Alfonso Rodriguez) [2011, Доминикана, боевик, триллер, криминал, BDRip 720p] MVO + Original Eng

Ответить на тему
 
Автор Сообщение

user ®

Стаж: 7 лет 7 месяцев

Сообщений: 20008

Пост Пост: #1 от 22-Сен-2013 14:35

[Цитировать]

Месть / Pimp Bullies
Страна: Доминикана
Жанр: боевик, триллер, криминал
Год выпуска: 2011
Продолжительность: 01:21:35
Перевод: Профессиональный (многоголосый закадровый)
Cубтитры: нет
Оригинальная аудиодорожка: английский
Режиссер: Альфонсо Родригес / Alfonso Rodriguez
В ролях: Винг Реймз, Стивен Бауэр, Эдриан Беллани, Маркос Бонетти, Чикинкира Дельгадо, Лаура Гарсия, Хемки Мадера, Fard Nasir, Кристен Куинтрелл, Каталина Родригез
Описание: Спустя 15 лет полицейский приступает к расследованию убийства проститутки: еще живы свидетели, есть возможность восстановить картину происшествия. Однако, сколько мужчина ни допрашивает знакомых погибшей, дело не продвигается. Наконец, одна из проституток решает помочь следователю, а вскоре погибают основные свидетели.
Сэмпл: http://multi-up.com/905643
Тип релиза: BDRip 720p
Контейнер: MKV
Видео: 1280*720, 4232 Кбит/сек, 23,976 кадра/сек
Аудио: AC-3, 192 Кбит/сек, 2Ch, 48,0 КГц-русский
Аудио 2: DTS, 1509 Кбит/сек, 6Ch, 48,0 КГц-английский

MediaInfo

Общее
Уникальный идентификатор : 249054576766961881054320922863896702355 (0xBB5E2AAE0B8E956A8686ED80FB952D93)
Полное имя : P:\pimp.bullies.2011.720p.bluray.x264.mkv
Формат : Matroska
Версия формата : Version 2
Размер файла : 3,38 Гбайт
Продолжительность : 1 ч. 21 м.
Общий поток : 5936 Кбит/сек
Дата кодирования : UTC 2013-09-19 13:24:11
Программа кодирования : mkvmerge v5.5.0 ('Healer') built on Apr 6 2012 21:43:24
Библиотека кодирования : libebml v1.2.3 + libmatroska v1.3.0
Видео
Идентификатор : 1
Формат : AVC
Формат/Информация : Advanced Video Codec
Профиль формата : High@L4.1
Параметр CABAC формата : Да
Параметр ReFrames формата : 5 кадров
Идентификатор кодека : V_MPEG4/ISO/AVC
Продолжительность : 1 ч. 21 м.
Битрейт : 4232 Кбит/сек
Ширина : 1280 пикселей
Высота : 720 пикселей
Соотношение сторон : 16:9
Режим частоты кадров : Постоянный
Частота кадров : 23,976 кадра/сек
Цветовое пространство : YUV
Субдискретизация насыщенности : 4:2:0
Битовая глубина : 8 бит
Тип развёртки : Прогрессивная
Бит/(Пиксели*Кадры) : 0.192
Размер потока : 2,35 Гбайт (69%)
Библиотека кодирования : x264 core 133 r2334 a3ac64b
Настройки программы : cabac=1 / ref=5 / deblock=1:0:0 / analyse=0x3:0x133 / me=umh / subme=7 / psy=1 / psy_rd=1.00:0.00 / mixed_ref=1 / me_range=16 / chroma_me=1 / trellis=1 / 8x8dct=1 / cqm=0 / deadzone=21,11 / fast_pskip=0 / chroma_qp_offset=-2 / threads=18 / lookahead_threads=3 / sliced_threads=0 / nr=0 / decimate=1 / interlaced=0 / bluray_compat=0 / constrained_intra=0 / bframes=3 / b_pyramid=2 / b_adapt=1 / b_bias=0 / direct=1 / weightb=1 / open_gop=0 / weightp=2 / keyint=240 / keyint_min=23 / scenecut=40 / intra_refresh=0 / rc_lookahead=40 / rc=2pass / mbtree=1 / bitrate=4232 / ratetol=1.0 / qcomp=0.60 / qpmin=10 / qpmax=69 / qpstep=4 / cplxblur=20.0 / qblur=0.5 / ip_ratio=1.40 / aq=1:1.00
Язык : English
Default : Да
Forced : Нет
Аудио #1
Идентификатор : 2
Формат : AC-3
Формат/Информация : Audio Coding 3
Расширение режима : CM (complete main)
Параметр Endianness формата : Big
Идентификатор кодека : A_AC3
Продолжительность : 1 ч. 21 м.
Вид битрейта : Постоянный
Битрейт : 192 Кбит/сек
Каналы : 2 канала
Расположение каналов : Front: L R
Частота : 48,0 КГц
Битовая глубина : 16 бит
Метод сжатия : С потерями
Размер потока : 112 Мбайт (3%)
Язык : Russian
Default : Да
Forced : Нет
Аудио #2
Идентификатор : 3
Формат : DTS
Формат/Информация : Digital Theater Systems
Режим : 16
Параметр Endianness формата : Big
Идентификатор кодека : A_DTS
Продолжительность : 1 ч. 21 м.
Вид битрейта : Постоянный
Битрейт : 1509 Кбит/сек
Каналы : 6 каналов
Расположение каналов : Front: L C R, Side: L R, LFE
Частота : 48,0 КГц
Битовая глубина : 16 бит
Метод сжатия : С потерями
Размер потока : 881 Мбайт (25%)
Язык : English
Default : Нет
Forced : Нет
Меню
00:00:00.000 : en:00:00:00.000
00:06:59.961 : en:00:06:59.961
00:13:59.964 : en:00:13:59.964
00:20:59.967 : en:00:20:59.967
00:27:59.928 : en:00:27:59.928
00:34:59.931 : en:00:34:59.931
00:41:59.934 : en:00:41:59.934
00:48:59.895 : en:00:48:59.895
00:55:59.898 : en:00:55:59.898
01:02:59.942 : en:01:02:59.942
01:07:59.909 : en:01:07:59.909
01:12:59.917 : en:01:12:59.917

Скриншоты

Скачать

Скачать торрент!

Как скачивать? · Что такое торрент? · Рейтинг и ограничения

Сайт не распространяет и не хранит электронные версии произведений, а лишь предоставляет доступ к создаваемому пользователями каталогу ссылок на торрент-файлы, которые содержат только списки хеш-сумм

[Профиль] [ЛС]
Показать сообщения:    
Ответить на тему

Текущее время: Сегодня 12:27

Часовой пояс: GMT + 4



Вы не можете начинать темы
Вы не можете отвечать на сообщения
Вы не можете редактировать свои сообщения
Вы не можете удалять свои сообщения
Вы не можете голосовать в опросах
Вы не можете прикреплять файлы к сообщениям
Вы не можете скачивать файлы