Белоснежка и семь гномов / Snow White and the Seven Dwarfs (Дэвид Хэнд / David Hand) [1937, США, мультфильм, мюзикл, фэнтези, мелодрама, семейный, TeleSynch] [Советская кинопрокатная версия] Sub Rus + Fre

Ответить на тему
 
Автор Сообщение

user ®

Стаж: 13 лет

Сообщений: 15041

Пост Пост: #1 от 21-Сен-2013 00:05

[Цитировать]

Белоснежка и семь гномов / Snow White and the Seven Dwarfs / Советская кинопрокатная версия
Страна: США
Жанр: мультфильм, мюзикл, фэнтези, мелодрама, семейный
Год выпуска: 1937
Продолжительность: 01:18:45
Перевод: субтитры
Субтитры: русские вшитые (хардсаб)
Режиссер: Дэвид Хэнд / David Hand
Описание: "Белоснежка и семь гномов" - это экранизация знаменитой немецкой сказки братьев Гримм о Белоснежке, жившей в замке со злой мачехой-королевой, которая однажды решила погубить прелестную падчерицу, узнав от волшебного зеркальца, что Белоснежка - самая прекрасная девушка на свете. Но Белоснежка не погибла, а наоборот, встретила в лесу настоящих друзей - забавных семерых гномов: Дока, Ворчуна, Весельчака, Тихоню, Чихуна, Соню и Простака...
Доп. информация: Данная версия фильма, это оцифровка с киноплёнки, из личной коллекции. В 1955 году этот мультфильм именно в таком виде, чёрно-белый, с субтитрами и оригинальной французской дорожкой, демонстрировался в кинотеатрах СССР. Это была "трофейная" копия, о чём сказано в первом титре.
Данный релиз я сделал по многочисленным просьбам пользователей сайта. Качество изображения и звука достаточно низкое, ценителям высокого качества лучше не качать.
Внимание: с 00:09:12 по 00:19:40 сильный рассинхрон (брак печати киноплёнки)
Качество видео: TeleSynch
Формат видео: AVI
Видео: XviD, 4:3, 720х544, 25 кадров/сек, 1336 кбит/сек
Аудио: Французский дубляж, МР3, 48 kHz, 128 кбит/сек, 2 ch (моно)
Доп. информация о субтитрах: вшитые

MediaInfo

Общее
Полное имя : G:Белоснежка и семь гномов.avi
Формат : AVI
Формат/Информация : Audio Video Interleave
Размер файла : 771 Мбайт
Продолжительность : 1 ч. 18 м.
Общий поток : 1368 Кбит/сек
Программа кодирования : VirtualDubMod 1.5.4.1 (build 2178/release)
Библиотека кодирования : VirtualDubMod build 2178/release
Видео
Идентификатор : 0
Формат : MPEG-4 Visual
Профиль формата : Advanced Simple@L5
Параметр BVOP формата : 1
Параметр QPel формата : Нет
Параметр GMC формата : Без точки перехода
Параметр матрицы формата : Выборочная
Идентификатор кодека : XVID
Идентификатор кодека/Подсказка : XviD
Продолжительность : 1 ч. 18 м.
Битрейт : 1233 Кбит/сек
Ширина : 720 пикселей
Высота : 544 пикселя
Соотношение сторон : 4:3
Частота кадров : 25,000 кадров/сек
Цветовое пространство : YUV
Субдискретизация насыщенности : 4:2:0
Битовая глубина : 8 бит
Тип развёртки : Прогрессивная
Метод сжатия : С потерями
Бит/(Пиксели*Кадры) : 0.126
Размер потока : 695 Мбайт (90%)
Библиотека кодирования : XviD 1.2.1 (UTC 2008-12-04)
Аудио
Идентификатор : 1
Формат : MPEG Audio
Версия формата : Version 1
Профиль формата : Layer 3
Режим : Joint stereo
Расширение режима : MS Stereo
Идентификатор кодека : 55
Идентификатор кодека/Подсказка : MP3
Продолжительность : 1 ч. 18 м.
Вид битрейта : Постоянный
Битрейт : 128 Кбит/сек
Каналы : 2 канала
Частота : 48,0 КГц
Метод сжатия : С потерями
Размер потока : 72,1 Мбайт (9%)
Выравнивание : Соединение по промежуткам
Продолжительность промежутка : 80 мс. (2,00 видеокадра)
Время предзагрузки промежутка : 504 мс.
Библиотека кодирования : LAME3.98r
Настройки программы : -m j -V 4 -q 2 -lowpass 17 -b 128

Скриншот c названием фильма

, ,

Скриншоты

, , , , , , , , ,
Скачать

Скачать торрент! Белоснежка и семь гномов / Snow White and the Seven Dwarfs (Дэвид Хэнд / David Hand) [1937, США, мультфильм, мюзикл, фэнтези, мелодрама, семейный, TeleSynch] [Советская кинопрокатная версия] Sub Rus + Fre

Как скачивать? · Что такое торрент? · Рейтинг и ограничения

Сайт не распространяет и не хранит электронные версии произведений, а лишь предоставляет доступ к создаваемому пользователями каталогу ссылок на торрент-файлы, которые содержат только списки хеш-сумм

[Профиль] [ЛС]
Показать сообщения:    
Ответить на тему

Текущее время: Сегодня 23:08

Часовой пояс: GMT + 4



Вы не можете начинать темы
Вы не можете отвечать на сообщения
Вы не можете редактировать свои сообщения
Вы не можете удалять свои сообщения
Вы не можете голосовать в опросах
Вы не можете прикреплять файлы к сообщениям
Вы не можете скачивать файлы