Лиса и птица (Дамир Салимов) [1971, Узбекфильм, рисованная анимация, TeleSynch]

Ответить на тему
 
Автор Сообщение

user ®

Стаж: 7 лет 7 месяцев

Сообщений: 20008

Пост Пост: #1 от 21-Сен-2013 00:05

[Цитировать]

Лиса и птица
Страна: СССР
Жанр: рисованная анимация
Продолжительность: 00:06:32
Год выпуска: 1971
Русские субтитры: нет
Режиссёр: Дамир Салимов
Описание: Однажды Лисица решила полакомиться маленькими птенцами. Но Птица-мать хитростью обманула Лису и спасла птенцов. В следующий раз Лиса привела с собой Волка и Пса. Птица опять обманула хищников, и отомстила им.
Доп. информация: Фильм оцифрован с киноплёнки 16-мм из личной коллекции. Качество изображения очень низкое, так как плёнка сильно повреждена, но другой версии этого мультфильма я в сети не нашёл.
Качество: TeleSynch
Формат: AVI
Видео: XviD, 4:3, 720х544, 1460 kbps, 25 fps
Аудио: МР-3, 48 кHz, 128 kbps, 2 ch (моно)
Субтитры: отсутствуют

Подробные технические данные

ОбщееПолное имя : G:\Лиса и птица.aviФормат : AVIФормат/Информация : Audio Video InterleaveРазмер файла : 69,9 МбайтПродолжительность : 6 м. 32 с.Общий поток : 1496 Кбит/секПрограмма кодирования : VirtualDubMod 1.5.4.1 (build 2178/release)Библиотека кодирования : VirtualDubMod build 2178/release
ВидеоИдентификатор : 0Формат : MPEG-4 VisualПрофиль формата : Advanced Simple@L5Параметр BVOP формата : 1Параметр QPel формата : НетПараметр GMC формата : Без точки переходаПараметр матрицы формата : ВыборочнаяИдентификатор кодека : XVIDИдентификатор кодека/Подсказка : XviDПродолжительность : 6 м. 32 с.Битрейт : 1360 Кбит/секШирина : 720 пикселейВысота : 544 пикселяСоотношение сторон : 4:3Частота кадров : 25,000 кадров/секЦветовое пространство : YUVСубдискретизация насыщенности : 4:2:0Битовая глубина : 8 битТип развёртки : ПрогрессивнаяМетод сжатия : С потерямиБит/(Пиксели*Кадры) : 0.139Размер потока : 63,6 Мбайт (91%)Библиотека кодирования : XviD 1.2.1 (UTC 2008-12-04)
АудиоИдентификатор : 1Формат : MPEG AudioВерсия формата : Version 1Профиль формата : Layer 3Режим : Joint stereoРасширение режима : MS StereoИдентификатор кодека : 55Идентификатор кодека/Подсказка : MP3Продолжительность : 6 м. 32 с.Вид битрейта : ПостоянныйБитрейт : 128 Кбит/секКаналы : 2 каналаЧастота : 48,0 КГцМетод сжатия : С потерямиРазмер потока : 5,98 Мбайт (9%)Выравнивание : Соединение по промежуткамПродолжительность промежутка : 80 мс. (2,00 видеокадра)Время предзагрузки промежутка : 504 мс.Библиотека кодирования : LAME3.98rНастройки программы : -m j -V 4 -q 2 -lowpass 17 -b 128

Скриншоты

, , , , ,
Скачать

Скачать торрент!

Как скачивать? · Что такое торрент? · Рейтинг и ограничения

Сайт не распространяет и не хранит электронные версии произведений, а лишь предоставляет доступ к создаваемому пользователями каталогу ссылок на торрент-файлы, которые содержат только списки хеш-сумм

[Профиль] [ЛС]
Показать сообщения:    
Ответить на тему

Текущее время: Сегодня 23:17

Часовой пояс: GMT + 4



Вы не можете начинать темы
Вы не можете отвечать на сообщения
Вы не можете редактировать свои сообщения
Вы не можете удалять свои сообщения
Вы не можете голосовать в опросах
Вы не можете прикреплять файлы к сообщениям
Вы не можете скачивать файлы