Лиса и птица (Дамир Салимов) [1971, Узбекфильм, рисованная анимация, TeleSynch]

Ответить на тему
 
Автор Сообщение

user ®

Стаж: 7 лет 7 месяцев

Сообщений: 20008

Пост Пост: #1 от 21-Сен-2013 00:05

[Цитировать]

Лиса и птица
Страна: СССР
Жанр: рисованная анимация
Продолжительность: 00:06:32
Год выпуска: 1971
Русские субтитры: нет
Режиссёр: Дамир Салимов
Описание: Однажды Лисица решила полакомиться маленькими птенцами. Но Птица-мать хитростью обманула Лису и спасла птенцов. В следующий раз Лиса привела с собой Волка и Пса. Птица опять обманула хищников, и отомстила им.
Доп. информация: Фильм оцифрован с киноплёнки 16-мм из личной коллекции. Качество изображения очень низкое, так как плёнка сильно повреждена, но другой версии этого мультфильма я в сети не нашёл.
Качество: TeleSynch
Формат: DVD-Video
Видео: PAL, 4:3, 720х576
Аудио: АС-3, 2 сh (моно), 256 кбит/сек
Субтитры: отсутствуют

Подробные технические данные

ОбщееПолное имя : G:\Лиса и птица.VOBФормат : MPEG-PSРазмер файла : 371 МбайтПродолжительность : 1 с. 417 мс.Режим общего битрейта : ПеременныйОбщий поток : 2194 Мбит/сек
ВидеоИдентификатор : 224 (0xE0)Формат : MPEG VideoВерсия формата : Version 2Профиль формата : Main@MainПараметр BVOP формата : ДаПараметр матрицы формата : По умолчаниюПараметр GOP формата : VariableПродолжительность : 1 с. 417 мс.Вид битрейта : ПеременныйБитрейт : 2150 Мбит/секМаксимальный битрейт : 7500 Кбит/секШирина : 720 пикселейВысота : 576 пикселейСоотношение сторон : 4:3Частота кадров : 25,000 кадров/секСтандарт вещания : PALЦветовое пространство : YUVСубдискретизация насыщенности : 4:2:0Битовая глубина : 8 битТип развёртки : ЧересстрочнаяПорядок развёртки : Верхнее поле первоеМетод сжатия : С потерямиБит/(Пиксели*Кадры) : 207.383Временной код первого кадра : 00:00:00:00Оригинал временного кода : Group of pictures headerРазмер потока : 359 Мбайт (97%)Основные цвета : BT.601 PALХарактеристики трансфера : BT.470 System B, BT.470 System GКоэффициенты матрицы : BT.601
АудиоИдентификатор : 189 (0xBD)-128 (0x80)Формат : AC-3Формат/Информация : Audio Coding 3Расширение режима : CM (complete main)Параметр Endianness формата : BigРежим смешивания : DVD-VideoПродолжительность : 1 с. 273 мс.Вид битрейта : ПостоянныйБитрейт : 256 Кбит/секКаналы : 2 каналаРасположение каналов : Front: L RЧастота : 48,0 КГцБитовая глубина : 16 битМетод сжатия : С потерямиЗадержка видео : -80 мс.Размер потока : 39,8 Кбайт (0%)

Скриншоты

, ,
Скачать

Скачать торрент!

Как скачивать? · Что такое торрент? · Рейтинг и ограничения

Сайт не распространяет и не хранит электронные версии произведений, а лишь предоставляет доступ к создаваемому пользователями каталогу ссылок на торрент-файлы, которые содержат только списки хеш-сумм

[Профиль] [ЛС]
Показать сообщения:    
Ответить на тему

Текущее время: Сегодня 23:52

Часовой пояс: GMT + 4



Вы не можете начинать темы
Вы не можете отвечать на сообщения
Вы не можете редактировать свои сообщения
Вы не можете удалять свои сообщения
Вы не можете голосовать в опросах
Вы не можете прикреплять файлы к сообщениям
Вы не можете скачивать файлы