Лето. Пляж. Кино / Teen Beach Movie (Джеффри Хорнадэй / Jeffrey Hornaday) [2013, США, мюзикл, семейный, WEB-DLRip] Dub + Original Eng

Ответить на тему
 
Автор Сообщение

user ®

Стаж: 7 лет 7 месяцев

Сообщений: 20008

Пост Пост: #1 от 21-Сен-2013 00:05

[Цитировать]

Лето. Пляж. Кино / Teen Beach Movie
Страна: США
Жанр: мюзикл, семейный
Год выпуска: 2013
Продолжительность: 01:35:01
Перевод: Профессиональный (дублированный) Канал Disney
Cубтитры: нет
Оригинальная аудиодорожка: английский
Режиссер: Джеффри Хорнадэй / Jeffrey Hornaday
В ролях: Росс Линч, Майя Митчелл, Грэйс Фиппс, Гари Клэйтон, Джон ДеЛюка, Крисси Фит, Сюзанн Крайер, Бэрри Боствик, Кевин Чэмберлин, Стив Валентайн
Описание: Последний день лета подходит к концу, а поклонники сёрфинга Маккензи и ее друг Брейди никак не хотят уходить с пляжа. Под вечер они ловят огромную волну, которая переносит их не только в пространстве, но и во времени - на полстолетия назад! Здесь, в 60-х, друзья оказываются в центре противостояния двух шумных компаний - сёрферов и рокеров. Оказывается, всё, что происходит вокруг, - не что иное, как известный ретро-мюзикл. У Маккензи и Брейди есть только один шанс попасть обратно домой - вернуть музыкальную историю в прежнее русло. Для этого ребятам предстоит освоить язык песни и танца...
Сэмпл: http://multi-up.com/905175
Качество видео: WEB-DLRip
Формат видео: AVI
Видео: XviD, 720x400, 1471 Kbit/s, 23.976 fps
Аудио: АС3, 48000 Hz, 2 каналов, 192 kbit/s рус
Аудио 2: АС3, 48000 Hz, 6 каналов, 384 kbit/s eng

MediaInfo

Общее
Полное имя : D:\Teen.Beach.Movie_2013.WEB-DLRip.avi
Формат : AVI
Формат/Информация : Audio Video Interleave
Размер файла : 1,37 Гбайт
Продолжительность : 1 ч. 35 м.
Общий поток : 2062 Кбит/сек
Программа кодирования : VirtualDubModRus 1.5.10.1 (build 2439/release)
Библиотека кодирования : VirtualDubMod build 2439/release
Видео
Идентификатор : 0
Формат : MPEG-4 Visual
Профиль формата : Advanced Simple@L5
Параметр BVOP формата : 2
Параметр QPel формата : Нет
Параметр GMC формата : Без точки перехода
Параметр матрицы формата : Default (MPEG)
Идентификатор кодека : XVID
Идентификатор кодека/Подсказка : XviD
Продолжительность : 1 ч. 35 м.
Битрейт : 1472 Кбит/сек
Ширина : 720 пикселей
Высота : 400 пикселей
Соотношение сторон : 16:9
Частота кадров : 23,976 кадра/сек
Цветовое пространство : YUV
Субдискретизация насыщенности : 4:2:0
Битовая глубина : 8 бит
Тип развёртки : Прогрессивная
Метод сжатия : С потерями
Бит/(Пиксели*Кадры) : 0.213
Размер потока : 1000 Мбайт (71%)
Библиотека кодирования : XviD 63
Аудио #1
Идентификатор : 1
Формат : AC-3
Формат/Информация : Audio Coding 3
Расширение режима : CM (complete main)
Параметр Endianness формата : Big
Идентификатор кодека : 2000
Продолжительность : 1 ч. 34 м.
Вид битрейта : Постоянный
Битрейт : 192 Кбит/сек
Каналы : 2 канала
Расположение каналов : Front: L R
Частота : 48,0 КГц
Битовая глубина : 16 бит
Метод сжатия : С потерями
Размер потока : 130 Мбайт (9%)
Выравнивание : Разделение по промежуткам
Продолжительность промежутка : 42 мс. (1,00 видеокадр)
Время предзагрузки промежутка : 500 мс.
Аудио #2
Идентификатор : 2
Формат : AC-3
Формат/Информация : Audio Coding 3
Расширение режима : CM (complete main)
Параметр Endianness формата : Big
Идентификатор кодека : 2000
Продолжительность : 1 ч. 35 м.
Вид битрейта : Постоянный
Битрейт : 384 Кбит/сек
Каналы : 6 каналов
Расположение каналов : Front: L C R, Side: L R, LFE
Частота : 48,0 КГц
Битовая глубина : 16 бит
Метод сжатия : С потерями
Размер потока : 261 Мбайт (19%)
Выравнивание : Разделение по промежуткам
Продолжительность промежутка : 42 мс. (1,00 видеокадр)
Время предзагрузки промежутка : 500 мс.

Скриншот c названием фильма

Скриншоты

Скачать

Скачать торрент!

Как скачивать? · Что такое торрент? · Рейтинг и ограничения

Сайт не распространяет и не хранит электронные версии произведений, а лишь предоставляет доступ к создаваемому пользователями каталогу ссылок на торрент-файлы, которые содержат только списки хеш-сумм

[Профиль] [ЛС]
Показать сообщения:    
Ответить на тему

Текущее время: Сегодня 12:29

Часовой пояс: GMT + 4



Вы не можете начинать темы
Вы не можете отвечать на сообщения
Вы не можете редактировать свои сообщения
Вы не можете удалять свои сообщения
Вы не можете голосовать в опросах
Вы не можете прикреплять файлы к сообщениям
Вы не можете скачивать файлы