Воображариум / Imaginaerum (Стобе Харью / Stobe Harju) [2012, Канада, Финляндия, фэнтези, приключения, мюзикл, драма, BDRip 720p] Dub (R5) + Original (Eng) + Sub (Rus, Eng)

Ответить на тему
 
Автор Сообщение

user ®

Стаж: 7 лет 7 месяцев

Сообщений: 20008

Пост Пост: #1 от 19-Сен-2013 19:10

[Цитировать]

Воображариум / Imaginaerum
Страна: Канада, Финляндия
Студия: Caramel Film, Scene Nation, Solar Films
Жанр: фэнтези, приключения, мюзикл, драма
Год выпуска: 2012
Продолжительность: 01:25:54
Перевод: профессиональный (дублированный)
Оригинальная аудиодорожка: английская
Cубтитры: русские, английские
Режиссер: Стобе Харью / Stobe Harju
В ролях: Марианн Фарли, Куинн Лорд, Фрэнсис З. МакКарти, Илка Вилли, Джоэнна Нойес, Кеянна Филдинг, Стефани Демерс, Рон Лиа, Хелен Робитейлл, Туомас Холопайнен, Анетт Ользон, Юкка Невалайнен, Эмппу Вуоринен, Марко Хиетала, Аларей Элсип, Шон Байчу, Гленда Браганза, Филипп Бедар
Описание: Кто из нас в детстве не мечтал попасть в волшебную страну? В страну, где все возможно. Где исполняются самые несбыточные мечты, встречаются необыкновенные существа и происходит самое настоящее Волшебство. Теперь ваши мечты могут осуществиться! Не важно сколько вам лет. Не важно верите ли вы в говорящих снеговиков и в то, что люди могут летать. Просто приоткройте эту дверь и перед вами окажется Воображариум, где все возможно.

Релиз: fanatus
Качество видео: BDRip 720p
Исходник: Blu-ray Disc 1080p [IMGNRM_BLUEBIRD]
Контейнер: MKV
Видео: MPEG-4 AVC, 4500 Kbps , 1280x544 (2.35:1), 23.976 fps, 0.270 bit/pixel
Аудио 1: русский (AC3, 6 ch, 48 kHz, 448 kbps)
Аудио 2: английский (AC3, 6 ch, 48 kHz, 640 kbps)
Формат субтитров: softsub (SRT)
Главы: есть

MediaInfo

General
Unique ID : 227518670798957251600694043908131271769 (0xAB2A80899E4C1C1EA662120100F03459)
Complete name : E:\Imaginaerum.2012.x264.BDRip.720p.fanatus.mkv
Format : Matroska
Format version : Version 2
File size : 3.35 GiB
Duration : 1h 25mn
Overall bit rate : 5 586 Kbps
Movie name : Imaginaerum (2012) - fanatus
Encoded date : UTC 2013-09-18 17:16:59
Writing application : mkvmerge v3.4.0 ('Rapunzel') сборка от May 15 2010 09:38:20
Writing library : libebml v0.8.0 + libmatroska v0.9.0
Video
ID : 1
Format : AVC
Format/Info : Advanced Video Codec
Format profile : High@L4.1
Format settings, CABAC : Yes
Format settings, ReFrames : 10 frames
Codec ID : V_MPEG4/ISO/AVC
Duration : 1h 25mn
Bit rate : 4 500 Kbps
Width : 1 280 pixels
Height : 544 pixels
Display aspect ratio : 2.35:1
Frame rate : 23.976 fps
Color space : YUV
Chroma subsampling : 4:2:0
Bit depth : 8 bits
Scan type : Progressive
Bits/(Pixel*Frame) : 0.270
Stream size : 2.63 GiB (79%)
Title : Imaginaerum (2012)
Writing library : x264 core 138 r2358kMod 9e941d1
Encoding settings : cabac=1 / ref=10 / deblock=1:-3:-3 / analyse=0x3:0x113 / me=tesa / subme=11 / psy=1 / fade_compensate=0.00 / psy_rd=0.95:0.05 / mixed_ref=1 / me_range=32 / chroma_me=1 / trellis=2 / 8x8dct=1 / cqm=0 / deadzone=21,11 / fast_pskip=0 / chroma_qp_offset=-3 / threads=16 / lookahead_threads=4 / sliced_threads=0 / nr=0 / decimate=0 / interlaced=0 / bluray_compat=0 / constrained_intra=0 / bframes=13 / b_pyramid=2 / b_adapt=2 / b_bias=0 / direct=3 / weightb=1 / open_gop=0 / weightp=2 / keyint=240 / keyint_min=23 / scenecut=40 / intra_refresh=0 / rc_lookahead=240 / rc=2pass / mbtree=0 / bitrate=4500 / ratetol=1.0 / qcomp=0.70 / qpmin=0 / qpmax=69 / qpstep=4 / cplxblur=20.0 / qblur=0.5 / vbv_maxrate=50000 / vbv_bufsize=62500 / nal_hrd=none / ip_ratio=1.30 / pb_ratio=1.20 / aq=3:0.80
Language : English
Default : Yes
Forced : No
Audio #1
ID : 2
Format : AC-3
Format/Info : Audio Coding 3
Mode extension : CM (complete main)
Format settings, Endianness : Big
Codec ID : A_AC3
Duration : 1h 25mn
Bit rate mode : Constant
Bit rate : 448 Kbps
Channel(s) : 6 channels
Channel positions : Front: L C R, Side: L R, LFE
Sampling rate : 48.0 KHz
Bit depth : 16 bits
Compression mode : Lossy
Stream size : 275 MiB (8%)
Title : Dub
Language : Russian
Default : Yes
Forced : No
Audio #2
ID : 3
Format : AC-3
Format/Info : Audio Coding 3
Mode extension : CM (complete main)
Format settings, Endianness : Big
Codec ID : A_AC3
Duration : 1h 25mn
Bit rate mode : Constant
Bit rate : 640 Kbps
Channel(s) : 6 channels
Channel positions : Front: L C R, Side: L R, LFE
Sampling rate : 48.0 KHz
Bit depth : 16 bits
Compression mode : Lossy
Stream size : 393 MiB (11%)
Title : Original
Language : English
Default : No
Forced : No
Text #1
ID : 4
Format : UTF-8
Codec ID : S_TEXT/UTF8
Codec ID/Info : UTF-8 Plain Text
Title : Midnight & Dagnarus
Language : Russian
Default : No
Forced : No
Text #2
ID : 5
Format : UTF-8
Codec ID : S_TEXT/UTF8
Codec ID/Info : UTF-8 Plain Text
Title : jerichOne & miktlana
Language : Russian
Default : No
Forced : No
Text #3
ID : 6
Format : UTF-8
Codec ID : S_TEXT/UTF8
Codec ID/Info : UTF-8 Plain Text
Language : English
Default : No
Forced : No
Menu
00:00:00.000 : en:Chapter 01
00:00:48.089 : en:Chapter 02
00:04:13.836 : en:Chapter 03
00:09:38.619 : en:Chapter 04
00:14:08.389 : en:Chapter 05
00:18:31.735 : en:Chapter 06
00:25:34.908 : en:Chapter 07
00:28:36.840 : en:Chapter 08
00:32:32.283 : en:Chapter 09
00:39:16.062 : en:Chapter 10
00:45:10.040 : en:Chapter 11
00:50:43.457 : en:Chapter 12
00:57:25.233 : en:Chapter 13
01:04:48.092 : en:Chapter 14
01:12:06.739 : en:Chapter 15
01:19:05.574 : en:Chapter 16

x264 [info]

x264 [info]: 1280x544p 1:1 @ 24000/1001 fps (cfr)
x264 [info]: frame I:847 Avg QP:10.71 size:108837
x264 [info]: frame P:27811 Avg QP:12.73 size: 42481
x264 [info]: frame B:94919 Avg QP:13.57 size: 17100
x264 [info]: consecutive B-frames: 3.3% 3.7% 10.1% 12.3% 16.8% 39.8% 5.6% 1.7% 1.6% 1.0% 1.0% 1.3% 0.6% 1.1%
x264 [info]: mb I I16..4: 15.0% 68.7% 16.2%
x264 [info]: mb P I16..4: 1.9% 15.1% 1.3% P16..4: 25.7% 32.4% 15.3% 0.0% 0.0% skip: 8.4%
x264 [info]: mb B I16..4: 0.2% 1.7% 0.1% B16..8: 29.4% 24.6% 6.8% direct: 8.1% skip:29.0% L0:46.9% L1:41.5% BI:11.6%
x264 [info]: 8x8 transform intra:81.3% inter:51.9%
x264 [info]: direct mvs spatial:95.9% temporal:4.1%
x264 [info]: coded y,uvDC,uvAC intra: 87.5% 93.6% 88.6% inter: 26.4% 37.6% 27.0%
x264 [info]: i16 v,h,dc,p: 33% 9% 10% 48%
x264 [info]: i8 v,h,dc,ddl,ddr,vr,hd,vl,hu: 9% 8% 15% 10% 12% 11% 11% 11% 13%
x264 [info]: i4 v,h,dc,ddl,ddr,vr,hd,vl,hu: 9% 6% 13% 9% 14% 13% 12% 11% 12%
x264 [info]: i8c dc,h,v,p: 59% 14% 12% 14%
x264 [info]: Weighted P-Frames: Y:5.4% UV:2.8%
x264 [info]: ref P L0: 45.0% 5.8% 21.4% 7.3% 6.6% 4.1% 4.1% 1.9% 2.1% 1.6% 0.4% 0.0%
x264 [info]: ref B L0: 65.2% 15.7% 7.4% 4.1% 2.7% 2.3% 1.7% 0.7% 0.3%
x264 [info]: ref B L1: 91.4% 8.6%
x264 [info]: kb/s:4496.16
x264 [info]: encoded 123577 frames, 2.38 fps, 4496.16 kb/s, duration 14:24:27.48

Скриншот c названием фильма

Скриншоты

Source vs Rip




Скачать

Скачать торрент!

Как скачивать? · Что такое торрент? · Рейтинг и ограничения

Сайт не распространяет и не хранит электронные версии произведений, а лишь предоставляет доступ к создаваемому пользователями каталогу ссылок на торрент-файлы, которые содержат только списки хеш-сумм

[Профиль] [ЛС]
Показать сообщения:    
Ответить на тему

Текущее время: Сегодня 21:57

Часовой пояс: GMT + 4



Вы не можете начинать темы
Вы не можете отвечать на сообщения
Вы не можете редактировать свои сообщения
Вы не можете удалять свои сообщения
Вы не можете голосовать в опросах
Вы не можете прикреплять файлы к сообщениям
Вы не можете скачивать файлы