Блэки летит на Луну / Black to the Moon 3D (Франсис Нилсен / Francis Nielsen) [2013, мультфильм, комедия, приключения, WEB-DLRip] Dub

Ответить на тему
 
Автор Сообщение

user ®

Стаж: 13 лет

Сообщений: 15041

Пост Пост: #1 от 17-Сен-2013 17:20

[Цитировать]

Для любой зрительской аудитории
Блэки летит на Луну | Black to the Moon
Год выпуска: 2013
Страна: Испания, Италия, Франция
Студии: Baleuko, Lumiq Studios, Film Investment, Art'Mell, Talape
Бюджет: $15 000 000
Жанр: Мультфильм, комедия, приключения
Продолжительность: 01:17:13
Перевод: Профессиональный (дублированный)
Субтитры: Отсутствуют-Режиссер: Франсис Нилсен / Francis Nielsen-В ролях: Кристина Хьюз / Kristina Hughes (Laika), Питер Хадсон / Peter Hudson (Marvin), Брайан Вермейр / Brian Vermeire (Hu Flung Pu), Кэролин Фаллин / Carolyn Fallin (Theodora), Бобби Джексон / Bobby Jackson (Johnny Pastrino)-Роли дублировали:
Александр Лаенко, Александр Фильченко, Анна Балицкая, Анна Кикас, Василий Марков, Владислав Чернявский, Вячеслав Аринчехин, Вячеслав Бухтояров, Екатерина Астрединова, Елена Симанович, Людмила Гуськова, Мавлюда Гулямова
-Описание: Овечка Блэки - единственная черная овечка на ферме. Энергии у нее хоть отбавляй, а способностей попадать в истории - еще больше. Соседи по ферме называют Блэки "очаровательным бедствием". Неожиданно бестию-брюнетку посетила мысль полететь на Луну. Животные на ферме все-таки решают помочь ей осуществить мечту, а больше всех ей помогает пес-охранник Кануто. Он предпочитает спокойную жизнь, тишину и порядок, но не в силах отказать обожаемой Блэки. И они начинают готовиться к полету, а тут уж без забавных происшествий не обойтись!- Рейтинг MPAA Нет возрастных ограничений-Качество: WEB-DLRip
Формат: AVI
Видео кодек: XviD
Аудио кодек: AC3
Видео: 720x384 (1.875:1), 25.000 fps, XviD, 2 141 Kbps, 0.31 bit/pixel
Аудио: 384 Kbps, AC3, 48.0 KHz, 2 channels

MediaInfo

General
Complete name                    : Блэки летит на Луну 2013 WEB-DLRip.avi
Format                           : AVI
Format/Info                      : Audio Video Interleave
File size                        : 1.37 GiB
Duration                         : 1h 17mn
Overall bit rate                 : 2 534 Kbps
Writing application              : VirtualDubMod 1.5.10.2 (build 2540/release)
Writing library                  : VirtualDubMod build 2540/release
Video
ID                               : 0
Format                           : MPEG-4 Visual
Format profile                   : Advanced Simple@L5
Format settings, BVOP            : Yes
Format settings, QPel            : No
Format settings, GMC             : No warppoints
Format settings, Matrix          : Default (H.263)
Codec ID                         : XVID
Codec ID/Hint                    : XviD
Duration                         : 1h 17mn
Bit rate                         : 2 141 Kbps
Width                            : 720 pixels
Height                           : 384 pixels
Display aspect ratio             : 1.875
Frame rate                       : 25.000 fps
Color space                      : YUV
Chroma subsampling               : 4:2:0
Bit depth                        : 8 bits
Scan type                        : Progressive
Bits/(Pixel*Frame)               : 0.310
Stream size                      : 1.15 GiB (84%)
Writing library                  : XviD 1.2.1 (UTC 2008-12-04)
Audio
ID                               : 1
Format                           : AC-3
Format/Info                      : Audio Coding 3
Mode extension                   : CM (complete main)
Codec ID                         : 2000
Duration                         : 1h 17mn
Bit rate mode                    : Constant
Bit rate                         : 384 Kbps
Channel(s)                       : 2 channels
Channel positions                : Front: L R
Sampling rate                    : 48.0 KHz
Bit depth                        : 16 bits
Stream size                      : 212 MiB (15%)
Alignment                        : Split accross interleaves
Interleave, duration             : 40 ms (1.00 video frame)
Interleave, preload duration     : 500 ms

Скриншоты

Скачать

Скачать торрент! Блэки летит на Луну / Black to the Moon 3D (Франсис Нилсен / Francis Nielsen) [2013, мультфильм, комедия, приключения, WEB-DLRip] Dub

Как скачивать? · Что такое торрент? · Рейтинг и ограничения

Сайт не распространяет и не хранит электронные версии произведений, а лишь предоставляет доступ к создаваемому пользователями каталогу ссылок на торрент-файлы, которые содержат только списки хеш-сумм

[Профиль] [ЛС]
Показать сообщения:    
Ответить на тему

Текущее время: Сегодня 18:04

Часовой пояс: GMT + 4



Вы не можете начинать темы
Вы не можете отвечать на сообщения
Вы не можете редактировать свои сообщения
Вы не можете удалять свои сообщения
Вы не можете голосовать в опросах
Вы не можете прикреплять файлы к сообщениям
Вы не можете скачивать файлы