Чудесные годы / The Wonder Years / Yeol-se-sal Soo-ah (Ким Хи-Чжон / KIM Hee-jeong) [2007, Южная Корея, Драма, DVDRip] VO D.I.M.

Ответить на тему
 
Автор Сообщение

user ®

Стаж: 11 лет

Сообщений: 15151

Пост Пост: #1 от 17-Сен-2013 17:20

[Цитировать]

Чудесные годы / The Wonder Years / Yeol-se-sal Soo-ah
Страна: Южная Корея
Жанр: Драма
Год выпуска: 2007
Продолжительность: 1:35:09
Перевод: Одноголосый закадровый D.I.M.
Cубтитры: нет
Режиссер: Ким Хи-Чжон / KIM Hee-jeong
В ролях: Се-Ён Ли / Se-young Lee
Сан-Ми Чу / Sang-mi Choo
Му-Сон Чоль / Moo-Seong Choi
Юн-А Ким / Yoon-ah Kim
Описание: Для юной Су-А сейчас трудное время.
Ей всего тринадцать лет.
Она молчалива, строптива и эгоцентрична.
Закончив начальную школу она оказывается в подвешенном состоянии -
без настоящих друзей и даже далека от своей семьи.
Её отец умер два года назад, а мать слишком занята в ресторанчике,
чтобы содержать семью.
Да к тому же в голову Су-А приходят сомнения,
а настоящая ли её мать....
Это шестьдесят шестой фильм с моим переводом и озвучкой, выложенный здесь.
Любители душевного кино могут найти для себя что-то интересное.
Сэмпл: http://multi-up.com/904217
Качество видео: DVDRip
Формат видео: AVI
Видео: 640*352 (16:9), 23,976 fps, MPEG-4 Visual (XviD) ~ 888 kbps avg, 0.164 bit/pixel
Аудио: MPEG Audio Layer 3, 48000Hz, stereo, 128kbps

MediaInfo

Общее
Полное имя : D:\TORENT\РАЗДАЧИ (РИПЫ)\Girl Thirteen.avi
Формат : AVI
Формат/Информация : Audio Video Interleave
Размер файла : 698 Мбайт
Продолжительность : 1 ч. 35 м.
Общий поток : 1026 Кбит/сек
Программа кодирования : VirtualDubModRus 1.5.10.2 (build 2542/release)
Библиотека кодирования : VirtualDubMod build 2542/release
Видео
Идентификатор : 0
Формат : MPEG-4 Visual
Профиль формата : Advanced Simple@L5
Параметр BVOP формата : 2
Параметр QPel формата : Нет
Параметр GMC формата : Без точки перехода
Параметр матрицы формата : Default (MPEG)
Режим смешивания : Сжатый битовый поток
Идентификатор кодека : XVID
Идентификатор кодека/Подсказка : XviD
Продолжительность : 1 ч. 35 м.
Битрейт : 888 Кбит/сек
Ширина : 640 пикс.
Высота : 352 пикс.
Соотношение сторон : 16:9
Частота кадров : 23,976 кадр/сек
Цветовое пространство : YUV
Подвыборка цветности : 4:2:0
Битовая глубина : 8 бит
Тип развёртки : Прогрессивная
Метод сжатия : С потерями
Бит/(Пиксели*Кадры) : 0.164
Размер потока : 605 Мбайт (87%)
Библиотека кодирования : XviD 1.0.3 (UTC 2004-12-20)
Аудио
Идентификатор : 1
Формат : MPEG Audio
Версия формата : Version 1
Профиль формата : Layer 3
Режим : Joint stereo
Расширение режима : MS Stereo
Идентификатор кодека : 55
Идентификатор кодека/Подсказка : MP3
Продолжительность : 1 ч. 35 м.
Вид битрейта : Постоянный
Битрейт : 128 Кбит/сек
Канал(ы) : 2 канала(ов)
Частота : 48,0 КГц
Метод сжатия : С потерями
Размер потока : 87,1 Мбайт (12%)
Выравнивание : Соединение по промежуткам
Продолжительность промежутка : 42 мс. (1,00 видеокадр)
Время предзагрузки промежутка : 504 ms

Скриншот c названием фильма

Отсутствует

Скриншоты

Скачать

Скачать торрент! Чудесные годы / The Wonder Years / Yeol-se-sal Soo-ah (Ким Хи-Чжон / KIM Hee-jeong) [2007, Южная Корея, Драма, DVDRip] VO D.I.M.

Как скачивать? · Что такое торрент? · Рейтинг и ограничения

Сайт не распространяет и не хранит электронные версии произведений, а лишь предоставляет доступ к создаваемому пользователями каталогу ссылок на торрент-файлы, которые содержат только списки хеш-сумм

[Профиль] [ЛС]
Показать сообщения:    
Ответить на тему

Текущее время: Сегодня 03:05

Часовой пояс: GMT + 4



Вы не можете начинать темы
Вы не можете отвечать на сообщения
Вы не можете редактировать свои сообщения
Вы не можете удалять свои сообщения
Вы не можете голосовать в опросах
Вы не можете прикреплять файлы к сообщениям
Вы не можете скачивать файлы