Ночь демонов / Night of the Demons (Кевин Тенни / Kevin Tenney) [1988, США, ужасы, HDTV 1080i] 3x AVO (Карповский, Визгунов, Прямостанов) + original (eng)

Ответить на тему
 
Автор Сообщение

user ®

Стаж: 7 лет 7 месяцев

Сообщений: 20008

Пост Пост: #1 от 17-Сен-2013 01:30

[Цитировать]

Ночь демонов / Night of the Demons
Год выпуска: 1988
Страна: США
Жанр: ужасы
Продолжительность: 01:26:20
Перевод1: Авторский(одноголосый, закадровый)(А.Карповский)
Перевод2: Авторский (одноголосый, закадровый)(С.Визгунов)
Перевод3: Авторский (одноголосый, закадровый)(П.Прямостанов)
Субтитры: отсутствуют
Оригинальная аудиодорожка: английский
Режиссер: Кевин Тенни / Kevin Tenney
В ролях: Элвин Алексис, Эллисон Баррон, Лэнс Фентон, Билли Галло, Хэл Хэвинс, Кэти Подвелл, Линни Куигли, Филип Танцини, Джилл Терашита, Харольд Эйер, Мэри Динн, Карен Эриксон, Амелия Кинкейд, Дон Джефкоат, Джеймс В. Куинн, Кларк Джарретт
Описание: Группа подростков собирается праздновать Хэллоуин, и для этого нужно подходящее место, ведь идти на обычный школьный бал-маскарад это неоригинально и неинтересно. И вот большая компания приезжает в старый заброшенный дом. Начало вечеринки довольно убогое - выпивка и танцы. Но к счастью организатор вечеринки Анджела придумала более подходящее к Хэллоуину развлечение - попытаться рассмотреть в зеркало свое прошлое. Одна из участниц вечеринки, увидев в зеркале демоническую морду, роняет его и таким образом освобождает нечисти путь в наш мир...

Качество: HDTV 1080i
Формат: MKV
Видео кодек: H.264
Аудио кодек: AC3
Видео: 1920 x 1080; 25 fps; 5 626 Kbps
Аудио1: Русский, AC3 2.0 192 Kbps 48,0 КГц(Karpovskiy)
Аудио2: Русский, AC3 2.0 192 Kbps 48,0 КГц(Vizgunov)
Аудио3: Русский, AC3 2.0 192 Kbps 48,0 КГц(Pryamostanov)
Аудио4: English, AC3 2.0 384 Kbps 48,0 КГц(Original)

MediaInfo

D:\HDFILMS\Night.of.the.Demons.1988.1080i.HDTV.3xRus.Eng.mkv
General
Unique ID : 222838162300372632043141358040534923578 (0xA7A511A6E1853B7CABF476949D06B93A)
Complete name : D:\HDFILMS\Night.of.the.Demons.1988.1080i.HDTV.3xRus.Eng.mkv
Format : Matroska
File size : 4.05 GiB
Duration : 1h 26mn
Overall bit rate : 6 719 Kbps
Encoded date : UTC 2013-09-15 03:43:20
Writing application : mkvmerge v6.2.0 ('Promised Land') built on Apr 28 2013 12:22:01
Writing library : libebml v1.3.0 + libmatroska v1.4.0
Video #1
ID : 1
Format : AVC
Format/Info : Advanced Video Codec
Format profile : Main@L4.0
Format settings, CABAC : Yes
Format settings, ReFrames : 4 frames
Codec ID : V_MPEG4/ISO/AVC
Duration : 1h 26mn
Bit rate : 5 626 Kbps
Width : 1 920 pixels
Height : 1 080 pixels
Display aspect ratio : 16:9
Frame rate : 50.000 fps
Original frame rate : 25.000 fps
Color space : YUV
Chroma subsampling : 4:2:0
Bit depth : 8 bits
Scan type : Interlaced
Scan order : Top Field First
Bits/(Pixel*Frame) : 0.054
Stream size : 3.39 GiB (84%)
Title : Night of the Demons 1988 1080p HDTV DD2.0 H.264-lulz
Color primaries : BT.709-5, BT.1361, IEC 61966-2-4, SMPTE RP177
Transfer characteristics : BT.709-5, BT.1361
Matrix coefficients : BT.709-5, BT.1361, IEC 61966-2-4 709, SMPTE RP177
Audio #2
ID : 2
Format : AC-3
Format/Info : Audio Coding 3
Mode extension : CM (complete main)
Codec ID : A_AC3
Duration : 1h 26mn
Bit rate mode : Constant
Bit rate : 192 Kbps
Channel(s) : 2 channels
Channel positions : Front: L R
Sampling rate : 48.0 KHz
Bit depth : 16 bits
Compression mode : Lossy
Stream size : 119 MiB (3%)
Title : Karpovskiy AC3 2.0 192 kbps
Language : Russian
Audio #3
ID : 3
Format : AC-3
Format/Info : Audio Coding 3
Mode extension : CM (complete main)
Codec ID : A_AC3
Duration : 1h 26mn
Bit rate mode : Constant
Bit rate : 192 Kbps
Channel(s) : 2 channels
Channel positions : Front: L R
Sampling rate : 48.0 KHz
Bit depth : 16 bits
Compression mode : Lossy
Stream size : 119 MiB (3%)
Title : Vizgunov AC3 2.0 192 kbps
Language : Russian
Audio #4
ID : 4
Format : AC-3
Format/Info : Audio Coding 3
Mode extension : CM (complete main)
Codec ID : A_AC3
Duration : 1h 26mn
Bit rate mode : Constant
Bit rate : 192 Kbps
Channel(s) : 2 channels
Channel positions : Front: L R
Sampling rate : 48.0 KHz
Bit depth : 16 bits
Compression mode : Lossy
Stream size : 119 MiB (3%)
Title : Pryamostanov AC3 2.0 192 kbps
Language : Russian
Audio #5
ID : 5
Format : AC-3
Format/Info : Audio Coding 3
Format profile : Dolby Digital
Mode extension : CM (complete main)
Codec ID : A_AC3
Duration : 1h 26mn
Bit rate mode : Constant
Bit rate : 384 Kbps
Channel(s) : 2 channels
Channel positions : Front: L R
Sampling rate : 48.0 KHz
Bit depth : 16 bits
Compression mode : Lossy
Stream size : 237 MiB (6%)
Title : Original AC3 2.0 384 kbps
Language : English
Скачать

Скачать торрент!

Как скачивать? · Что такое торрент? · Рейтинг и ограничения

Сайт не распространяет и не хранит электронные версии произведений, а лишь предоставляет доступ к создаваемому пользователями каталогу ссылок на торрент-файлы, которые содержат только списки хеш-сумм

[Профиль] [ЛС]
Показать сообщения:    
Ответить на тему

Текущее время: Сегодня 14:33

Часовой пояс: GMT + 4



Вы не можете начинать темы
Вы не можете отвечать на сообщения
Вы не можете редактировать свои сообщения
Вы не можете удалять свои сообщения
Вы не можете голосовать в опросах
Вы не можете прикреплять файлы к сообщениям
Вы не можете скачивать файлы