Эффект колибри / Hummingbird (Стивен Найт / Steven Knight) [2013, США, Великобритания, Боевик, Триллер, Криминал, DVDRip] Dub

Ответить на тему
 
Автор Сообщение

user ®

Стаж: 7 лет 7 месяцев

Сообщений: 20008

Пост Пост: #1 от 16-Сен-2013 16:05

[Цитировать]

Эффект колибри / Hummingbird
Страна: США, Великобритания
Жанр: Боевик, Триллер, Криминал
Год выпуска: 2013
Продолжительность: 01:40:23
Перевод: Профессиональный (дублированный) (Лицензия)
Cубтитры: нет
Оригинальная аудиодорожка: нет
Режиссер: Стивен Найт / Steven Knight
В ролях: Джейсон Стэйтем, Ли Асквит-Коу, Вики МакКлюр, Йен Пири, Бенедикт Вонг, Сенем Темиз, Шиван Хьюлетт, Пол Блэкуэлл, Агата Бузек, Эдди Рубен
Описание: Бывший спецназовец Джоуи Джонс пытается начать новую жизнь. Он соглашается работать на азиатскую мафию. Но проникая все глубже в криминальный мир родного города, он понимает, что не может спокойно смотреть на творящееся в нем беззаконие. Когда от рук бандитов погибает его возлюбленная Изабель, Джоуи решает восстановить справедливость. Он начинает расследование, которое ведет его на самый верх преступного синдиката.
Доп. информация: Знаете ли вы, что...
В одной из начальных сцен можно заметить баннер фильма «Отверженные».
Сэмпл: http://multi-up.com/888216
Качество видео: DVDRip
Формат видео: AVI
Видео: Xvid,720x320,(2.25:1),23,976 Fps. ~1647 kbps
Аудио: MP3.48000khz.128.00 kbps.2 Ch

MediaInfo

Общее
Полное имя : D:\Фильмы\Kolibri.E.2013.D.DVDRip[Deadmauvlad].avi
Формат : AVI
Формат/Информация : Audio Video Interleave
Профиль формата : OpenDML
Размер файла : 1,25 Гбайт
Продолжительность : 1 ч. 40 м.
Общий поток : 1783 Кбит/сек
Название фильма : Kolibri.E.2013.D.DVDRip
Режиссёр : ~Deadmauvlad~
Жанр : Боевик
Программа кодирования : VirtualDubMod 1.5.10.3
Формат оригинала/Имя : Фильм
Видео
Идентификатор : 0
Формат : MPEG-4 Visual
Профиль формата : Advanced Simple@L5
Параметр BVOP формата : 2
Параметр QPel формата : Нет
Параметр GMC формата : Без точки перехода
Параметр матрицы формата : Default (H.263)
Идентификатор кодека : XVID
Идентификатор кодека/Подсказка : XviD
Продолжительность : 1 ч. 40 м.
Битрейт : 1639 Кбит/сек
Ширина : 720 пикселей
Высота : 320 пикселей
Соотношение сторон : 2,35:1
Частота кадров : 23,976 кадра/сек
Цветовое пространство : YUV
Субдискретизация насыщенности : 4:2:0
Битовая глубина : 8 бит
Тип развёртки : Прогрессивная
Метод сжатия : С потерями
Бит/(Пиксели*Кадры) : 0.297
Размер потока : 1,15 Гбайт (92%)
Библиотека кодирования : XviD 64
Аудио
Идентификатор : 1
Формат : MPEG Audio
Версия формата : Version 1
Профиль формата : Layer 3
Режим : Joint stereo
Идентификатор кодека : 55
Идентификатор кодека/Подсказка : MP3
Продолжительность : 1 ч. 40 м.
Вид битрейта : Постоянный
Битрейт : 128 Кбит/сек
Каналы : 2 канала
Частота : 48,0 КГц
Метод сжатия : С потерями
Размер потока : 91,9 Мбайт (7%)
Выравнивание : Соединение по промежуткам
Продолжительность промежутка : 24 мс. (0,58 видеокадр)
Библиотека кодирования : LAME3.99.4

Скринцот с названием фильма

Скачать

Скачать торрент!

Как скачивать? · Что такое торрент? · Рейтинг и ограничения

Сайт не распространяет и не хранит электронные версии произведений, а лишь предоставляет доступ к создаваемому пользователями каталогу ссылок на торрент-файлы, которые содержат только списки хеш-сумм

[Профиль] [ЛС]
Показать сообщения:    
Ответить на тему

Текущее время: Сегодня 18:17

Часовой пояс: GMT + 4



Вы не можете начинать темы
Вы не можете отвечать на сообщения
Вы не можете редактировать свои сообщения
Вы не можете удалять свои сообщения
Вы не можете голосовать в опросах
Вы не можете прикреплять файлы к сообщениям
Вы не можете скачивать файлы