Возвращение волшебников: Алекс против Алекс / Битва волшебников: Алекс против Алекс / The wizards return - Alex vs Alex (Виктор Гонсалес / Victor Gonzalez) [2013, США, Комедия, фантастика, семейный, DVB] Dub (студия "НЕВА ФИЛЬМ")

Ответить на тему
 
Автор Сообщение

user ®

Стаж: 7 лет 7 месяцев

Сообщений: 20008

Пост Пост: #1 от 16-Сен-2013 16:05

[Цитировать]

Возвращение волшебников: Алекс против Алекс / Битва волшебников: Алекс против Алекс / The wizards return - Alex vs Alex
Страна: США
Жанр: Комедия, фантастика, семейный
Год выпуска: 2013
Продолжительность: 00:56:11
Перевод: Профессиональный (дублированный): студия "НЕВА ФИЛЬМ"
Cубтитры: нет
Оригинальная аудиодорожка: нет
Режиссер: Виктор Гонсалес / Victor Gonzalez
В ролях: Селена Гомес, Джейк Т. Остин, Дженнифер Стоун, Грегг Салкин, Бо Мирчофф, Мария Кэнелс-Баррера, Дэвид ДеЛуис, Наталия Ногулич, Антонелла Лентини, Джек Доннер
Описание: Волшебная семейка Руссо — снова в центре внимания. В одно прекрасное лето Тереза, Джерри и Макс с друзьями Харпер и Мейсоном отправляются в солнечную Италию. Но Алекс остается дома, желая доказать близким, что она взрослая, и у нее своя жизнь. Вот только экспериментируя с заклинаниями, она случайно разделяет свою душу пополам. Наружу выходит злая Алекс, мечтающая захватить мир. А добрая кудесница вынуждена не только её усмирять, но и лететь через океан, чтобы спасти близких от чар злодейки.
Доп. информация: Фильм основан на телевизионном сериале "Волшебники из Вейверли Плэйс"
Сэмпл: http://multi-up.com/903937
Качество видео: DVB
Формат видео: MPEG-PS
Видео: MPEG-2 PS, 720x576, 4/3, 25 fps, ~4000 kbps
Аудио: MPEG Audio Layer 2, 48 kHz, 128 kbps, 2 ch

MediaInfo

General
Complete name : D:\TV D\Wizards of Waverly Place\[2013] Возвращение волшебников - Алекс против Алекс\[2013] The wizards return - Alex vs Alex.mpg
Format : MPEG-PS
File size : 1.59 GiB
Duration : 56mn 11s
Overall bit rate mode : Variable
Overall bit rate : 4 050 Kbps
Writing library : (c) 1998-2012 Womble Multimedia, Inc. / MPEG Video Wizard DVD 5.0.1.100 (03/2011) / Sep 7 2012
Video
ID : 224 (0xE0)
Format : MPEG Video
Format version : Version 2
Format profile : Main@Main
Format settings, BVOP : Yes
Format settings, Matrix : Custom
Duration : 56mn 11s
Bit rate mode : Variable
Bit rate : 3 841 Kbps
Maximum bit rate : 10 000 Kbps
Width : 720 pixels
Height : 576 pixels
Display aspect ratio : 4:3
Frame rate : 25.000 fps
Standard : PAL
Color space : YUV
Chroma subsampling : 4:2:0
Bit depth : 8 bits
Scan type : Interlaced
Scan order : Top Field First
Compression mode : Lossy
Bits/(Pixel*Frame) : 0.370
Stream size : 1.51 GiB (95%)
Writing library : (c) 1998-2012 Womble Multimedia, Inc. / MPEG Video Wizard DVD 5.0.1.100 (03/2011) / Sep 7 2012
Audio
ID : 192 (0xC0)
Format : MPEG Audio
Format version : Version 1
Format profile : Layer 2
Duration : 56mn 11s
Bit rate mode : Constant
Bit rate : 128 Kbps
Channel(s) : 2 channels
Sampling rate : 48.0 KHz
Compression mode : Lossy
Delay relative to video : -80ms
Stream size : 51.4 MiB (3%)

Скриншот c названием фильма

Скриншоты

Скачать

Скачать торрент!

Как скачивать? · Что такое торрент? · Рейтинг и ограничения

Сайт не распространяет и не хранит электронные версии произведений, а лишь предоставляет доступ к создаваемому пользователями каталогу ссылок на торрент-файлы, которые содержат только списки хеш-сумм

[Профиль] [ЛС]
Показать сообщения:    
Ответить на тему

Текущее время: Сегодня 22:13

Часовой пояс: GMT + 4



Вы не можете начинать темы
Вы не можете отвечать на сообщения
Вы не можете редактировать свои сообщения
Вы не можете удалять свои сообщения
Вы не можете голосовать в опросах
Вы не можете прикреплять файлы к сообщениям
Вы не можете скачивать файлы