Семейка Крудс / The Croods (Кирк де Микко / Kirk De Micco, Крис Сандерс / Chris Sanders) [2013, мультфильм, фэнтези, комедия, BDRip] Dub + Eng

Ответить на тему
 
Автор Сообщение

user ®

Стаж: 13 лет

Сообщений: 15041

Пост Пост: #1 от 16-Сен-2013 00:15

[Цитировать]

Семейка Крудс / The Croods«Если они не эволюционируют, то станут историей»- Страна: США
Жанр: мультфильм, фэнтези, комедия, приключения, семейный
Год выпуска: 2013
Продолжительность: 01:38:37
Перевод: Профессиональный (полное дублирование)
Субтитры: Нет-Режиссер: Кирк де Микко / Kirk De Micco, Крис Сандерс / Chris Sanders-Роли озвучивали: Николас Кейдж (Grug, озвучка,), Эмма Стоун (Eep, озвучка), Райан Рейнольдс (Guy, озвучка), Кэтрин Кинер (Ugga, озвучка), Клорис Личмен (Gran, озвучка), Кларк Дьюк (Thunk, озвучка), Крис Сандерс (Belt, озвучка)-Роли дублировали: Дмитрий Назаров (Grug), Нюша Шурочкина (Eep), Егор Дружинин (Guy), Александра Назарова (Gran), Руслан Мещанов (Thunk)-Описание: Землетрясение уничтожило дом доисторической семьи, и теперь Крудсам придётся искать другое пристанище. А вокруг новый и опасный мир! Им на помощь приходит молодой кочевник Малой, передовые взгляды которого наталкиваются на консервативность главы семьи Груга. Но только вместе они смогут выжить и достичь своей цели...-Рейтинг:

MPAA: - Рекомендуется присутствие родителей-Бюджет: $135 000 000
Сборы в США: $187 153 646
Сборы в России: $28 442 097
Сборы в мире: $583 414 265
Мировая премьера: 15 февраля 2013
Релиз на DVD: 3 октября 2013, «Двадцатый Век Фокс СНГ»
Релиз на Blu-ray: 3 октября 2013, «Двадцатый Век Фокс СНГ»--[spoiler=http://www.sendspace.com/file/mv2uv2]Семпл-Качество: BDRip [THE_CROODS_2013_REMUX_HDCLUB]
Формат: AVI
Видео: 720x304 (2.37:1), 23.976 fps, XviD MPEG-4 ~2280 kbps avg, 0.43 bit/pixel
Аудио: Русский -48 kHz, AC3 Dolby Digital, 3/2 (L,C,R,l,r) + LFE ch, ~448 kbps
Аудио 2: Английский -48 kHz, AC3 Dolby Digital, 3/2 (L,C,R,l,r) + LFE ch, ~448 kbps
Субтитры: Отсутствуют-

MI

Format : AVIFormat/Info : Audio Video InterleaveFormat profile : OpenDMLFile size : 2.19 GiBDuration : 1h 38mnOverall bit rate : 3 183 KbpsWriting application : VirtualDubMod 1.5.10.3 | www.virtualdub-fr.org || (build 2550/release)Writing library : VirtualDubMod build 2550/release
VideoID : 0Format : MPEG-4 VisualFormat profile : Advanced Simple@L5Format settings, BVOP : 2Format settings, QPel : NoFormat settings, GMC : No warppointsFormat settings, Matrix : CustomCodec ID : XVIDCodec ID/Hint : XviDDuration : 1h 38mnBit rate : 2 270 KbpsWidth : 720 pixelsHeight : 304 pixelsDisplay aspect ratio : 2.35:1Frame rate : 23.976 fpsColor space : YUVChroma subsampling : 4:2:0Bit depth : 8 bitsScan type : ProgressiveCompression mode : LossyBits/(Pixel*Frame) : 0.432Stream size : 1.56 GiB (71%)Writing library : XviD 65
Audio #1ID : 1Format : AC-3Format/Info : Audio Coding 3Mode extension : CM (complete main)Format settings, Endianness : BigCodec ID : 2000Duration : 1h 38mnBit rate mode : ConstantBit rate : 448 KbpsChannel(s) : 6 channelsChannel positions : Front: L C R, Side: L R, LFESampling rate : 48.0 KHzBit depth : 16 bitsCompression mode : LossyStream size : 316 MiB (14%)Alignment : Split accross interleavesInterleave, duration : 42 ms (1.00 video frame)Interleave, preload duration : 500 ms
Audio #2ID : 2Format : AC-3Format/Info : Audio Coding 3Mode extension : CM (complete main)Format settings, Endianness : BigCodec ID : 2000Duration : 1h 38mnBit rate mode : ConstantBit rate : 448 KbpsChannel(s) : 6 channelsChannel positions : Front: L C R, Side: L R, LFESampling rate : 48.0 KHzBit depth : 16 bitsCompression mode : LossyStream size : 316 MiB (14%)Alignment : Split accross interleavesInterleave, duration : 42 ms (1.00 video frame)Interleave, preload duration : 500 ms

Знаете ли Вы, что...

  • Первый фильм студии DreamWorks Animation, дистрибьютором которого стала компания 20th Century Fox.
Скачать

Скачать торрент! Семейка Крудс / The Croods (Кирк де Микко / Kirk De Micco, Крис Сандерс / Chris Sanders) [2013, мультфильм, фэнтези, комедия, BDRip] Dub + Eng

Как скачивать? · Что такое торрент? · Рейтинг и ограничения

Сайт не распространяет и не хранит электронные версии произведений, а лишь предоставляет доступ к создаваемому пользователями каталогу ссылок на торрент-файлы, которые содержат только списки хеш-сумм

[Профиль] [ЛС]
Показать сообщения:    
Ответить на тему

Текущее время: Сегодня 16:52

Часовой пояс: GMT + 4



Вы не можете начинать темы
Вы не можете отвечать на сообщения
Вы не можете редактировать свои сообщения
Вы не можете удалять свои сообщения
Вы не можете голосовать в опросах
Вы не можете прикреплять файлы к сообщениям
Вы не можете скачивать файлы