Скачать торрент Великая небесная стена / Иллюзия рая / Tengoku Daimakyou [S01] (2023) BDRip-HEVC 1080p | D, L

 
Автор Сообщение

bazalt ®

Стаж: 13 лет

Сообщений: 640

Пост Пост: #1 от 23-Июн-2024 22:45

[Цитировать]

Информация о фильме
Название: Великая небесная стена / Иллюзия рая
Оригинальное название: Tengoku Daimakyou
Английское название: Heavenly Delusion
Год выхода: 2023
Жанр: Экшен, Приключения, Фантастика, Сёнен
Режиссер: Хиротака Мори
Роли озвучивали: Саяка Сэмбонги, Гэн Сато, Мисато Мацуока, Ацуми Танэдзаки, Масако Исобэ, Тосиюки Тоёнага, Томоё Куросава, Мисато Фукуэн, Кадзуя Накаи, Тадаси Муто, Сюнсукэ Такэути, Юки Син, Хибику Ямамура
Описание: Одна история расскажет о путешествии таинственного Мару в компании его телохранителя Кируко в поисках «Небес» по давно разрушенному миру, который таит в себе немало ужасных монстров. Вторая посвящена незабвенному пребыванию Токио в том самом «рае», который окружён гигантскими стенами, где туда-сюда снуют взрослые, а дети проявляют таланты. И каждый житель «рая» хоть раз да задумывался: «Что же может быть за стенами?..»

Страна: Япония
Студия: Production I.G
Продолжительность: 13 х ~ 00:24:00
Перевод:
Дублированный (неофициальный) StudioBand (Вероника Нефёдова, Данил Зимин, Анна Мосолова, Никита Моисеев, Никита Жбанов, Глеб Орлов, Георгий Кармрян, Александр Скиданов, Полина Ртищева, Даниил Бледный)
Любительский многоголосый AniBaza (MacaRonin, Nate, Xander, Akemitsuki, Pandora, Veda)
Любительский многоголосый AniLibria (Hekomi, JazzJack, Kroxxa, WhiteCroW)
Любительский многоголосый DreamCast (BrainDeLook, Indominus Rex, kaifiX, Ket, Lelik_time)
Любительский многоголосый DubClub (SKIDEN, Hamfry, annie, deltezbran, Nullhao, RuriRururi, yuumiko.mao, D1nfray)
Любительский многоголосый Freedub Studio (Maslina, Ocelot, Shinori, Dr3am, Seidji, Dagor Magnus)
Любительский многоголосый ShikokuStudio (Gecep, GimerHade, Izzy Mei, Shiro, Muroi)
Файл
Формат: MKV
Качество: BDRip 1080p | [VCB-Studio]
Видео: HEVC, ~ 5982 Кбит/с, 1920x1080, 10 бит
Аудио #1: AAC LC, 2 ch, 48 kHz, ~ 300 kbps | Русский | StudioBand
Аудио #2: AAC LC, 2 ch, 48 kHz, ~ 300 kbps (126 kbps - 1 эп.) | Русский | AniBaza
Аудио #3: AAC LC, 2 ch, 48 kHz, 192 kbps | Русский | AniLibria
Аудио #4: AAC LC, 2 ch, 48 kHz, 192 kbps | Русский | DreamCast
Аудио #5: AAC LC, 2 ch, 48 kHz, 192 kbps | Русский | DubClub
Аудио #6: AAC LC, 2 ch, 48 kHz, 128 kbps | Русский | Freedub Studio
Аудио #7: AAC LC, 2 ch, 48 kHz, 192 kbps | Русский | ShikokuStudio
Аудио #8: FLAC, 2 ch, 48 kHz, 16 bit, ~636 kbps | Японский | Оригинал
Субтитры: Русские надписи, русские, английские (софтсаб) | Katsura, RikuSempai, AniLibria, Dae
Автор релиза: EvraGo
Реклама: отсутствует
Благодарность Adventurer_Kun за субтитры

MediaInfo

General
Unique ID : 134743359281175802377317359419576470166 (0x655EA0860047AFDDC51FEA5C587ECA96)
Complete name : G:РаздачиГотовые[VCB-Studio] Tengoku Daimakyou [BDRip 1080p x265 FLAC][VCB-Studio] Tengoku Daimakyou - 01 [BDRip 1080p x265 FLAC].mkv
Format : Matroska
Format version : Version 4
File size : 1.34 GiB
Duration : 23 min 52 s
Overall bit rate mode : Variable
Overall bit rate : 8 059 kb/s
Frame rate : 23.976 FPS
Encoded date : 2024-03-28 11:13:50 UTC
Writing application : mkvmerge v83.0 ('Circle Of Friends') 64-bit
Writing library : libebml v1.4.5 + libmatroska v1.7.1
Attachments : AcciusTEEMed.ttf / Corinthian Medium Regular.ttf / Plane Crash.ttf / Stem-Bold.otf / StoneBird.ttf / TechnaSansRegular.otf / a_FuturaRoundDemi (Regular).ttf / AllodsWest (Regular).ttf / Archangelsk (Regular).ttf / Arial (Regular).ttf / Astakhov First Simple (Regular).ttf / Athelas (Bold).ttf / BD_s2 (Light).ttf / Ben Krush CYR-LAT (Regular).otf / BrokgauzEfron (Regular).ttf / Bw Surco DEMO Bold (Italic).otf / Candara (Bold Italic).ttf / Candara (Bold).ttf / CyrillicChancellor (Normal).ttf / Eras Bold ITC (Regular).TTF / FOT-NewRodin Pro UB (Regular).otf / FOT-Rowdy Std EB (Regular).otf / FOT-Slump Std DB (Regular).otf / FOT-UDKakugo_Large Pr6N R (Regular).otf / Garamond (Regular).TTF / Graffiti2CTT (Regular).ttf / HummingMod (Regular).otf / ITC Bolt Bold (Regular).otf / Jack Brusher(RUS BY LYAJKA) (Regular).ttf / Japanese Brush [Rus by me] (Regular).otf / LC Chalk (Regular).ttf / m_Bolid (Regular).ttf / Marker Felt (Wide).ttf / MP Manga Font Bold (Regular).ttf / PmLogo2023 (Regular).ttf / RodinNTLGPro-B-Str (Regular).otf / Super Webcomic Bros. (Rus by yakustick) (Regular).ttf / UDKakugo_LargePr6N-B-Str (Regular).otf / Undertale Battle Font (Thin).ttf / Verdana (Regular).ttf / Waukegan LDO (Bold Oblique).ttf / Waukegan LDO (Bold).ttf
Video
ID : 1
Format : HEVC
Format/Info : High Efficiency Video Coding
Format profile : Main 10@L4@Main
Codec ID : V_MPEGH/ISO/HEVC
Duration : 23 min 51 s
Bit rate : 5 982 kb/s
Width : 1 920 pixels
Height : 1 080 pixels
Display aspect ratio : 16:9
Frame rate mode : Constant
Frame rate : 23.976 (24000/1001) FPS
Color space : YUV
Chroma subsampling : 4:2:0
Bit depth : 10 bits
Bits/(Pixel*Frame) : 0.120
Stream size : 1 021 MiB (74%)
Writing library : x265 3.5+98-g3449bc85e+20-gc1a540a56:[Windows][clang 15.0.7][64 bit] Kyouko 10bit+8bit+12bit
Encoding settings : rc=crf / crf=15.5000 / qcomp=0.67 / qpstep=4 / stats-write=0 / stats-read=0 / qscale-mode=0 / no-lossless / no-cu-lossless / aq-mode=3 / no-limit-aq1 / aq-strength=0.85 / aq-bias-strength=1.00 / limit-aq1-strength=1.00 / cbqpoffs=-3 / crqpoffs=-3 / ipratio=1.20 / pbratio=1.20 / psy-rd=1.80 / psy-rdoq=0.80 / psy-bscale=300 / psy-pscale=256 / psy-iscale=96 / deblock=-1:-1 / ref=5 / limit-refs=1 / no-limit-modes / bframes=8 / b-adapt=2 / bframe-bias=0 / b-pyramid / b-intra / weightp / weightb / min-keyint=1 / max-keyint=240 / rc-lookahead=80 / gop-lookahead=0 / scenecut=40 / hist-scenecut=0 / radl=0 / max-cu-size=32 / min-cu-size=8 / me=3 / subme=6 / merange=32 / rdoq-level=1 / rd=5 / rdpenalty=0 / dynamic-rd=0.00 / rd-refine / refine-tolerance=1.400 / ----- / cutree / cutree-strength=1.65 / cutree-minqpoffs=-69.00 / cutree-maxqpoffs=69.00 / no-sao / rect / no-amp / no-open-gop / wpp / no-pmode / no-pme / no-psnr / no-ssim / nr-intra=0 / nr-inter=0 / no-constrained-intra / no-strong-intra-smoothing / max-tu-size=16 / tu-inter-depth=3 / tu-intra-depth=3 / limit-tu=0 / qg-size=16 / qpmax=69 / qpmin=0 / ----- / cpuid=1111039 / frame-threads=4 / numa-pools=+ / log-level=2 / input-csp=1 / input-res=1920x1080 / interlace=0 / level-idc=0 / high-tier=1 / uhd-bd=0 / no-allow-non-conformance / no-repeat-headers / no-aud / no-hrd / info / hash=0 / no-temporal-layers / lookahead-slices=0 / no-splice / no-intra-refresh / no-ssim-rd / signhide / no-tskip / max-merge=4 / temporal-mvp / no-frame-dup / no-hme / no-analyze-src-pics / no-sao-non-deblock / selective-sao=0 / no-early-skip / no-rskip / no-fast-intra / no-tskip-fast / no-splitrd-skip / zone-count=0 / no-strict-cbr / no-rc-grain / no-const-vbv / sar=0 / overscan=0 / videoformat=5 / range=0 / colorprim=1 / transfer=1 / colormatrix=1 / chromaloc=0 / display-window=0 / cll=0,0 / min-luma=0 / max-luma=1023 / log2-max-poc-lsb=8 / vui-timing-info / vui-hrd-info / slices=1 / no-opt-qp-pps / no-opt-ref-list-length-pps / no-multi-pass-opt-rps / scenecut-bias=0.05 / hist-threshold=0.03 / no-opt-cu-delta-qp / no-aq-motion / no-hdr10 / no-hdr10-opt / no-dhdr10-opt / no-idr-recovery-sei / analysis-reuse-level=0 / analysis-save-reuse-level=0 / analysis-load-reuse-level=0 / scale-factor=0 / refine-intra=0 / refine-inter=0 / refine-mv=1 / refine-ctu-distortion=0 / no-limit-sao / ctu-info=0 / no-lowpass-dct / refine-analysis-type=0 / copy-pic=1 / max-ausize-factor=1.0 / no-dynamic-refine / no-single-sei / no-hevc-aq / no-svt / no-field / qp-adaptation-range=1.00 / scenecut-aware-qp=0conformance-window-offsets / right=0 / bottom=0 / decoder-max-rate=0 / no-vbv-live-multi-pass
Language : Japanese
Default : Yes
Forced : No
Color range : Limited
Color primaries : BT.709
Transfer characteristics : BT.709
Matrix coefficients : BT.709
Audio #1
ID : 2
Format : AAC LC
Format/Info : Advanced Audio Codec Low Complexity
Codec ID : A_AAC-2
Duration : 23 min 52 s
Bit rate : 296 kb/s
Channel(s) : 2 channels
Channel layout : L R
Sampling rate : 48.0 kHz
Frame rate : 46.875 FPS (1024 SPF)
Compression mode : Lossy
Stream size : 50.5 MiB (4%)
Title : StudioBand
Language : Russian
Default : Yes
Forced : No
Audio #2
ID : 3
Format : AAC LC
Format/Info : Advanced Audio Codec Low Complexity
Codec ID : A_AAC-2
Duration : 23 min 52 s
Bit rate : 126 kb/s
Channel(s) : 2 channels
Channel layout : L R
Sampling rate : 48.0 kHz
Frame rate : 46.875 FPS (1024 SPF)
Compression mode : Lossy
Stream size : 21.5 MiB (2%)
Title : AniBaza
Language : Russian
Default : No
Forced : No
Audio #3
ID : 4
Format : AAC LC
Format/Info : Advanced Audio Codec Low Complexity
Codec ID : A_AAC-2
Duration : 23 min 51 s
Bit rate : 192 kb/s
Channel(s) : 2 channels
Channel layout : L R
Sampling rate : 48.0 kHz
Frame rate : 46.875 FPS (1024 SPF)
Compression mode : Lossy
Stream size : 32.8 MiB (2%)
Title : AniLibria
Language : Russian
Default : No
Forced : No
Audio #4
ID : 5
Format : AAC LC
Format/Info : Advanced Audio Codec Low Complexity
Codec ID : A_AAC-2
Duration : 23 min 52 s
Bit rate : 192 kb/s
Channel(s) : 2 channels
Channel layout : L R
Sampling rate : 48.0 kHz
Frame rate : 46.875 FPS (1024 SPF)
Compression mode : Lossy
Stream size : 32.8 MiB (2%)
Title : DreamCast
Language : Russian
Default : No
Forced : No
Audio #5
ID : 6
Format : AAC LC
Format/Info : Advanced Audio Codec Low Complexity
Codec ID : A_AAC-2
Duration : 23 min 52 s
Bit rate : 192 kb/s
Channel(s) : 2 channels
Channel layout : L R
Sampling rate : 48.0 kHz
Frame rate : 46.875 FPS (1024 SPF)
Compression mode : Lossy
Stream size : 32.8 MiB (2%)
Title : DubClub
Language : Russian
Default : No
Forced : No
Audio #6
ID : 7
Format : AAC LC
Format/Info : Advanced Audio Codec Low Complexity
Codec ID : A_AAC-2
Duration : 23 min 52 s
Bit rate : 128 kb/s
Channel(s) : 2 channels
Channel layout : L R
Sampling rate : 48.0 kHz
Frame rate : 46.875 FPS (1024 SPF)
Compression mode : Lossy
Stream size : 21.9 MiB (2%)
Title : Freedub Studio
Language : Russian
Default : No
Forced : No
Audio #7
ID : 8
Format : AAC LC
Format/Info : Advanced Audio Codec Low Complexity
Codec ID : A_AAC-2
Duration : 23 min 51 s
Bit rate : 192 kb/s
Channel(s) : 2 channels
Channel layout : L R
Sampling rate : 48.0 kHz
Frame rate : 46.875 FPS (1024 SPF)
Compression mode : Lossy
Stream size : 32.8 MiB (2%)
Title : ShikokuStudio
Language : Russian
Default : No
Forced : No
Audio #8
ID : 9
Format : FLAC
Format/Info : Free Lossless Audio Codec
Codec ID : A_FLAC
Duration : 23 min 51 s
Bit rate mode : Variable
Bit rate : 636 kb/s
Channel(s) : 2 channels
Channel layout : L R
Sampling rate : 48.0 kHz
Frame rate : 11.719 FPS (4096 SPF)
Bit depth : 16 bits
Compression mode : Lossless
Stream size : 109 MiB (8%)
Writing library : libFLAC 1.3.2 (2017-01-01)
Language : Japanese
Default : No
Forced : No
MD5 of the unencoded conten : E4A4DFA0CA228F9E1ECC49594FE2CC84
Text #1
ID : 10
Format : ASS
Codec ID : S_TEXT/ASS
Codec ID/Info : Advanced Sub Station Alpha
Duration : 20 min 38 s
Bit rate : 2 b/s
Frame rate : 0.004 FPS
Count of elements : 5
Compression mode : Lossless
Stream size : 400 Bytes (0%)
Title : Katsura [Надписи]
Language : Russian
Default : Yes
Forced : Yes
Text #2
ID : 11
Format : ASS
Codec ID : S_TEXT/ASS
Codec ID/Info : Advanced Sub Station Alpha
Duration : 22 min 7 s
Bit rate : 155 b/s
Frame rate : 0.259 FPS
Count of elements : 344
Compression mode : Lossless
Stream size : 25.2 KiB (0%)
Title : Katsura [Полные]
Language : Russian
Default : No
Forced : No
Text #3
ID : 12
Format : ASS
Codec ID : S_TEXT/ASS
Codec ID/Info : Advanced Sub Station Alpha
Duration : 23 min 32 s
Bit rate : 178 b/s
Frame rate : 0.270 FPS
Count of elements : 382
Compression mode : Lossless
Stream size : 30.7 KiB (0%)
Title : RikuSempai [Полные]
Language : Russian
Default : No
Forced : No
Text #4
ID : 13
Format : ASS
Codec ID : S_TEXT/ASS
Codec ID/Info : Advanced Sub Station Alpha
Duration : 22 min 7 s
Bit rate : 214 b/s
Frame rate : 0.284 FPS
Count of elements : 377
Compression mode : Lossless
Stream size : 34.8 KiB (0%)
Title : AniLibria [Полные]
Language : Russian
Default : No
Forced : No
Text #5
ID : 14
Format : ASS
Codec ID : S_TEXT/ASS
Codec ID/Info : Advanced Sub Station Alpha
Duration : 23 min 39 s
Bit rate : 356 b/s
Frame rate : 0.437 FPS
Count of elements : 620
Compression mode : Lossless
Stream size : 61.7 KiB (0%)
Title : Dae [Полные]
Language : English
Default : No
Forced : No
Menu
00:00:00.000 : en:Chapter 01
00:09:33.990 : en:Chapter 02
00:22:21.006 : en:Chapter 03

Список серий

01. Рай и ад / Heaven and Hell
02. Два признания / Two Confessions
03. Кирико и Харуки / Kiriko and Haruki
04. Куку / Kuku
05. Судьбоносный день / Day of Fate
06. Безопасность Воды - 100% / 100% Safe Water
07. Бессмертный Орден / The Immortal Order
08. Их выборы / Their Choices
09. Дети из школы / Children of the Nursery
10. Город за стеной / The Walled Town
11. Тест начинается / The Test Begins
12. Снаружи красиво / Outside of the Outside
13. Путешествие продолжается и начинается / The Journey Continues and Begins

Скриншоты


Скачать
Советуем установить VPN чтобы скрыть ваш IP-адрес
Сайт не распространяет и не хранит электронные версии произведений, а лишь предоставляет доступ к создаваемому пользователями каталогу ссылок на торрент-файлы, которые содержат только списки хеш-сумм
Как скачивать? (для скачивания .torrent файлов необходима регистрация)
[Профиль] [ЛС]
Показать сообщения:    

Текущее время: Сегодня 05:57

Часовой пояс: GMT + 4



Вы не можете начинать темы
Вы не можете отвечать на сообщения
Вы не можете редактировать свои сообщения
Вы не можете удалять свои сообщения
Вы не можете голосовать в опросах
Вы не можете прикреплять файлы к сообщениям
Вы не можете скачивать файлы