Скачать торрент Новогодний шеф (2023) WEB-DL 1080p

 
Автор Сообщение

bazalt ®

Стаж: 13 лет

Сообщений: 664

Пост Пост: #1 от 13-Июн-2024 01:05

[Цитировать]

Информация о фильме
Название: Новогодний шеф
Год выхода: 2023
Жанр: Комедия
Режиссер: Василий Ровенский
В ролях: Павел Прилучный, Зоя Бербер, Владислав Миллер, Кристина Корбут, Юлия Сулес, Илья Любимов, Ирина Темичева, Павел Ворожцов, Андрей Петелько, Дарья Урсуляк, Ольга Волкова, Аристарх Ливанов, Ирина Ракшина, Андрей Ургант, Галина Сазонова, Мария Дмитриева, Кристина Строителева, Ефим Петрунин, Иван Кукуев, Роберт Захарян, Мария Староторжская, Джованни Пинто, Фабрицио Руссо
О фильме:
Виктор — владелец модного ресторана, вот только дела в нем идут не очень. Вся надежда только на новогоднюю ночь, ведь все столики уже забронированы, но наступает 31 декабря и из ресторана уходит шеф-повар со всей командой. Казалось бы, все пропало, и тут в ресторане появляется Олеся, владелица кухни на дому в подмосковном поселке. Она привезла пирожные, которые Виктор совершенно случайно заказал у нее и даже успел забыть об этом. Виктор предлагает Олесе стать шеф-поваром на новогоднюю ночь. Она отказывается, Олеся обещала своему сыну Кириллу новогоднюю сказку с салютами. Виктор уговаривает ее согласиться, он верит в нее и знает, что у Олеси есть особый дар — пробуждать у людей своими блюдами самые лучшие воспоминания. Смогут ли Олеся и Виктор совершить настоящее новогоднее чудо: накормить всех гостей особенными блюдами и выполнить обещание, данное Кириллу?


Страна: Россия
Студия: КиноФирма
Продолжительность: 01:28:10
Язык: Русский
Премьера в Росcии: 14 декабря 2023 года
Цифровой релиз: 30 декабря 2023 года
Примечание: Без рекламы
Возраст: 12+
Файл
Формат: MKV
Качество: WEB-DL 1080p
Видео: MPEG-4 AVC, ~ 6144 Кбит/с, 1920x1080
Звук: AC3, 6 ch, 640 Кбит/с
Субтитры: Русские (полные)
Семпл

Скриншоты

MI

Общее
Уникальный идентификатор : 220079630532236478886852992602414083146 (0xA591CB88FF7361F83E79EB6DB5C56C4A)
Полное имя : C:UsersAdminDesktopNovogodnij.shef.2023.WEB-DL.1080p.mkv
Формат : Matroska
Версия формата : Version 4
Размер файла : 4,17 Гбайт
Продолжительность : 1 ч. 28 м.
Общий поток : 6 771 Кбит/сек
Название фильма : Novogodnij.shef.2023.WEB-DL.1080p
Дата кодирования : UTC 2023-12-29 23:52:09
Программа кодирования : mkvmerge v81.0 ('Milliontown') 64-bit
Библиотека кодирования : libebml v1.4.4 + libmatroska v1.7.1
Attachments : poster.jpg
Видео
Идентификатор : 1
Формат : AVC
Формат/Информация : Advanced Video Codec
Профиль формата : Baseline@L4
Настройки формата : 2 Ref Frames
Параметр CABAC формата : Нет
Параметр RefFrames формата : 2 кадра
Идентификатор кодека : V_MPEG4/ISO/AVC
Продолжительность : 1 ч. 28 м.
Вид битрейта : Постоянный
Битрейт : 6 144 Кбит/сек
Ширина : 1 920 пикселей
Высота : 1 080 пикселей
Соотношение сторон : 16:9
Режим частоты кадров : Постоянный
Частота кадров : 24,000 кадра/сек
Цветовое пространство : YUV
Субдискретизация насыщенности : 4:2:0
Битовая глубина : 8 бит
Тип развёртки : Прогрессивная
Бит/(Пиксели*Кадры) : 0.123
Размер потока : 3,77 Гбайт (90%)
Язык : Russian
Default : Да
Forced : Нет
Аудио
Идентификатор : 2
Формат : AC-3
Формат/Информация : Audio Coding 3
Коммерческое название : Dolby Digital
Идентификатор кодека : A_AC3
Продолжительность : 1 ч. 28 м.
Вид битрейта : Постоянный
Битрейт : 640 Кбит/сек
Каналы : 6 каналов
Channel layout : L R C LFE Ls Rs
Частота : 48,0 КГц
Частота кадров : 31,250 кадров/сек (1536 SPF)
Метод сжатия : С потерями
Размер потока : 404 Мбайт (9%)
Заголовок : [Original | 5.1 AC-3 Audio]
Язык : Russian
Service kind : Complete Main
Default : Да
Forced : Нет
Текст
Идентификатор : 3
Формат : UTF-8
Идентификатор кодека : S_TEXT/UTF8
Идентификатор кодека/Информация : UTF-8 Plain Text
Продолжительность : 1 ч. 23 м.
Битрейт : 109 бит/сек
Частота кадров : 0,267 кадр/сек
Count of elements : 1331
Размер потока : 66,6 Кбайт (0%)
Заголовок : [Full]
Язык : Russian
Default : Нет
Forced : Нет
Скачать
Советуем установить VPN чтобы скрыть ваш IP-адрес
Сайт не распространяет и не хранит электронные версии произведений, а лишь предоставляет доступ к создаваемому пользователями каталогу ссылок на торрент-файлы, которые содержат только списки хеш-сумм
Как скачивать? (для скачивания .torrent файлов необходима регистрация)
[Профиль] [ЛС]
Показать сообщения:    

Текущее время: Сегодня 04:33

Часовой пояс: GMT + 4



Вы не можете начинать темы
Вы не можете отвечать на сообщения
Вы не можете редактировать свои сообщения
Вы не можете удалять свои сообщения
Вы не можете голосовать в опросах
Вы не можете прикреплять файлы к сообщениям
Вы не можете скачивать файлы