Скачать торрент Белая птица: Новое чудо / Белая птица: История чуда / White Bird (2023) WEB-DL 1080p | D

 
Автор Сообщение

bazalt ®

Стаж: 13 лет

Сообщений: 1902

Пост Пост: #1 от 30-Май-2024 02:10

[Цитировать]

Информация о фильме
Название: Белая птица: Новое чудо / Белая птица: История чуда
Оригинальное название: White Bird
Год выхода: 2023
Жанр: драма, приключения, семейный, военный, биография
Режиссер: Марк Форстер
В ролях: Ариэлла Глейзер, Хелен Миррен, Орландо Швердт, Брайс Гейзар, Джиллиан Андерсон, Оливия Росс, Пэтси Ферран, Джо Стоун-Фьюингс, Стюарт Маккуорри, Джим Хай

О фильме: Действие картины «Белая птица. Новое чудо» разворачивается во вселенной драмы «Чудо». Героиня фильма — бабушка Джулиана, чье детство пришлось на Вторую мировую войну. Во времена немецкой оккупации ее, маленькую еврейскую девочку из французской деревни, укрыла в своем доме семья ее одноклассника, который стал для нее спасителем и лучшим другом. «Белая птица. Новое чудо» (2023) — семейная приключенческая драма с Хелен Миррен и Джиллиан Андерсон.
Страна: США
Студия: Lionsgate, Mandeville Films, Participant Media, Stillking Films
Продолжительность: 02:01:23
Перевод: Дублированный | Paragraph Media
Качество: BDRip 1080p
Видео: MPEG-4 AVC, 1920x804, 11000 Kbit/s, 24.000 fps
Аудио #01: 48 kHz, AC3, 5.1, 640 Kbps | Дублированный | Paragraph Media | RUS |
Аудио #02: 48 kHz, E-AC3, 5.1, 448 Kbps | Дублированный | Paragraph Media | RUS |
Аудио #03: 48 kHz, AC3, 5.1, 640 Kbps | Оригинал | ENG |
Субтитры: Русские (Full)

MI

General
Unique ID : 52555166572470016062812907596496925190 (0x2789C1C46C2226DD0E38DB36D6A27206)
Complete name : H:VideoHWhite.Bird.2023.BDRip.1080p.seleZen.mkv
Format : Matroska
Format version : Version 4
File size : 10.8 GiB
Duration : 2 h 1 min
Overall bit rate : 12.7 Mb/s
Frame rate : 24.000 FPS
Movie name : White Bird 2023 from seleZen
Encoded date : 2024-04-12 18:19:12 UTC
Writing application : mkvmerge v80.0 ('Roundabout') 64-bit
Writing library : libebml v1.4.4 + libmatroska v1.7.1
Video
ID : 1
Format : AVC
Format/Info : Advanced Video Codec
Format profile : High@L4.1
Format settings : CABAC / 5 Ref Frames
Format settings, CABAC : Yes
Format settings, Reference : 5 frames
Codec ID : V_MPEG4/ISO/AVC
Duration : 2 h 1 min
Bit rate : 11.0 Mb/s
Width : 1 920 pixels
Height : 804 pixels
Display aspect ratio : 2.39:1
Frame rate mode : Constant
Frame rate : 24.000 FPS
Color space : YUV
Chroma subsampling : 4:2:0
Bit depth : 8 bits
Scan type : Progressive
Bits/(Pixel*Frame) : 0.297
Stream size : 9.32 GiB (86%)
Writing library : x264 core 164 r3164 seleZen
Encoding settings : cabac=1 / ref=5 / deblock=1:-2:-2 / analyse=0x3:0x133 / me=umh / subme=11 / psy=1 / psy_rd=1.03:0.03 / mixed_ref=1 / me_range=48 / chroma_me=1 / trellis=2 / 8x8dct=1 / cqm=0 / deadzone=21,11 / fast_pskip=0 / chroma_qp_offset=-3 / threads=25 / lookahead_threads=6 / sliced_threads=0 / nr=0 / decimate=0 / interlaced=0 / bluray_compat=0 / constrained_intra=0 / bframes=10 / b_pyramid=2 / b_adapt=2 / b_bias=0 / direct=3 / weightb=1 / open_gop=0 / weightp=2 / keyint=240 / keyint_min=23 / scenecut=40 / intra_refresh=0 / rc_lookahead=60 / rc=2pass / mbtree=0 / bitrate=11000 / ratetol=1.0 / qcomp=0.60 / qpmin=0 / qpmax=51 / qpstep=4 / cplxblur=20.0 / qblur=0.5 / vbv_maxrate=50000 / vbv_bufsize=62500 / nal_hrd=none / filler=0 / ip_ratio=1.40 / pb_ratio=1.30 / aq=3:0.80
Language : English
Default : Yes
Forced : No
Audio #1
ID : 2
Format : AC-3
Format/Info : Audio Coding 3
Commercial name : Dolby Digital
Codec ID : A_AC3
Duration : 2 h 1 min
Bit rate mode : Constant
Bit rate : 640 kb/s
Channel(s) : 6 channels
Channel layout : L R C LFE Ls Rs
Sampling rate : 48.0 kHz
Frame rate : 31.250 FPS (1536 SPF)
Compression mode : Lossy
Stream size : 556 MiB (5%)
Title : Dub
Language : Russian
Service kind : Complete Main
Default : Yes
Forced : No
Audio #2
ID : 3
Format : E-AC-3
Format/Info : Enhanced AC-3
Commercial name : Dolby Digital Plus
Codec ID : A_EAC3
Duration : 2 h 1 min
Bit rate mode : Constant
Bit rate : 448 kb/s
Channel(s) : 6 channels
Channel layout : L R C LFE Ls Rs
Sampling rate : 48.0 kHz
Frame rate : 31.250 FPS (1536 SPF)
Compression mode : Lossy
Stream size : 389 MiB (4%)
Title : Dub
Language : Russian
Service kind : Complete Main
Default : No
Forced : No
Audio #3
ID : 4
Format : AC-3
Format/Info : Audio Coding 3
Commercial name : Dolby Digital
Codec ID : A_AC3
Duration : 2 h 1 min
Bit rate mode : Constant
Bit rate : 640 kb/s
Channel(s) : 6 channels
Channel layout : L R C LFE Ls Rs
Sampling rate : 48.0 kHz
Frame rate : 31.250 FPS (1536 SPF)
Compression mode : Lossy
Stream size : 556 MiB (5%)
Title : Original
Language : English
Service kind : Complete Main
Default : No
Forced : No
Text
ID : 5
Format : UTF-8
Codec ID : S_TEXT/UTF8
Codec ID/Info : UTF-8 Plain Text
Duration : 1 h 53 min
Bit rate : 67 b/s
Frame rate : 0.182 FPS
Count of elements : 1235
Stream size : 56.0 KiB (0%)
Title : Full
Language : Russian
Default : No
Forced : No
Menu
00:00:00.000 : en:Глава 01
00:01:06.375 : en:Глава 02
00:08:51.042 : en:Глава 03
00:20:39.917 : en:Глава 04
00:29:16.083 : en:Глава 05
00:38:19.375 : en:Глава 06
00:47:29.333 : en:Глава 07
00:56:16.458 : en:Глава 08
01:06:34.250 : en:Глава 09
01:16:54.833 : en:Глава 10
01:26:53.417 : en:Глава 11
01:39:39.417 : en:Глава 12
01:55:29.292 : en:Глава 13
Скачать
Советуем установить VPN чтобы скрыть ваш IP-адрес
Сайт не распространяет и не хранит электронные версии произведений, а лишь предоставляет доступ к создаваемому пользователями каталогу ссылок на торрент-файлы, которые содержат только списки хеш-сумм
Как скачивать? (для скачивания .torrent файлов необходима регистрация)
[Профиль] [ЛС]
Показать сообщения:    

Текущее время: Сегодня 18:08

Часовой пояс: GMT + 4



Вы не можете начинать темы
Вы не можете отвечать на сообщения
Вы не можете редактировать свои сообщения
Вы не можете удалять свои сообщения
Вы не можете голосовать в опросах
Вы не можете прикреплять файлы к сообщениям
Вы не можете скачивать файлы