Скачать торрент Побег из курятника: Рассвет наггетсов / Chicken Run: Dawn of the Nugget (2023) WEB-DL 1080p | D | Flarrow Films

 
Автор Сообщение

bazalt ®

Стаж: 13 лет

Сообщений: 2181

Пост Пост: #1 от 21-Апр-2024 03:25

[Цитировать]

Информация о фильме
Название: Побег из курятника: Рассвет наггетсов
Оригинальное название: Chicken Run: Dawn of the Nugget
Год выхода: 2023
Жанр: мультфильм, фантастика, фэнтези, боевик, приключения, семейный
Режиссер: Сэм Фелл
В ролях: Тандиве Ньютон, Закари Ливай, Белла Рэмзи, Имелда Стонтон, Линн Фергюсон, Дэвид Брэдли, Джейн Хоррокс, Рамеш Ранганатхан, Дэниэл Мейс, Джози Седжвик-Дэвис, Ник Мохаммед, Питер Серафинович
О фильме:
Успешно осуществив дерзкий и рискованный побег с фермы Твиди, Джинджер отыскала идеальное место для жизни — идиллический птичий заповедник на острове, где вся стая куриц живёт в гармонии и вдали от опасностей человеческого мира. Когда у Джинджер и Рокки появляется их дочь Молли, кажется, что счастливый конец для Джинджер стал реальностью. Однако всё куриное племя столкнулось с новой угрозой на Большой Земле, возглавляемой знакомым врагом.

Страна: Великобритания, США, Франция
Продолжительность: 01:41:39
Перевод: Дублированный (неофициальный) | Flarrow Films
Роли озвучивали: Олег Куценко, Дмитрий Филимонов, Андрей Бархударов, Людмила Шувалова, Лариса Некипелова, Андрей Гриневич, Людмила Ильина, Сабина Мусалимова, Александра Курагина, Ислам Ганджаев, Егор Васильев, Анастасия Фомичёва, Юлия Марычева, Марина Волкова и Наталья Тимонина.
Файл
Формат:MKV
Кодек: MPEG-4 AVC
Качество: WEB-DL 1080p
Видео: 1920х1080, ~ 5 000 kb/s, 24.000, 8 bits
Аудио: AC-3, 640 kb/s, 6 channels, 48.0 kHz
Субтитры: Русские на надписи (отключаемые UTF-8)
Сэмпл: скачать-

MediaInfo

General
Unique ID : 213482950310154927910334907806529929733 (0xA09B5216E50D85D0DF81BC1F9D90C205)
Complete name : C:Flarrow FilmsChicken.Run.Dawn.of.the.Nugget.2023.1080p.D.Flarrow.Films.mkv
Format : Matroska
Format version : Version 4
File size : 3.87 GiB
Duration : 1 h 41 min
Overall bit rate mode : Variable
Overall bit rate : 5 444 kb/s
Encoded date : UTC 2023-12-22 07:40:13
Writing application : mkvmerge v45.0.0 ('Heaven in Pennies') 64-bit
Writing library : libebml v1.3.10 + libmatroska v1.5.2
Video
ID : 1
Format : AVC
Format/Info : Advanced Video Codec
Format profile : Main@L4
Format settings : CABAC / 3 Ref Frames
Format settings, CABAC : Yes
Format settings, Reference : 3 frames
Codec ID : V_MPEG4/ISO/AVC
Duration : 1 h 41 min
Bit rate mode : Variable
Bit rate : 5 000 kb/s
Maximum bit rate : 7 500 kb/s
Width : 1 920 pixels
Height : 1 080 pixels
Display aspect ratio : 16:9
Frame rate mode : Constant
Frame rate : 24.000 FPS
Color space : YUV
Chroma subsampling : 4:2:0
Bit depth : 8 bits
Scan type : Progressive
Bits/(Pixel*Frame) : 0.100
Stream size : 3.41 GiB (88%)
Writing library : x264 core 148 r2727 7d026e8
Encoding settings : cabac=1 / ref=3 / deblock=1:0:0 / analyse=0x1:0x111 / me=umh / subme=10 / psy=1 / psy_rd=1.00:0.00 / mixed_ref=1 / me_range=24 / chroma_me=1 / trellis=2 / 8x8dct=0 / cqm=0 / deadzone=21,11 / fast_pskip=1 / chroma_qp_offset=-2 / threads=6 / lookahead_threads=1 / sliced_threads=0 / nr=0 / decimate=1 / interlaced=0 / bluray_compat=0 / stitchable=1 / constrained_intra=0 / bframes=2 / b_pyramid=0 / b_adapt=2 / b_bias=0 / direct=3 / weightb=1 / open_gop=0 / weightp=2 / keyint=240 / keyint_min=121 / scenecut=0 / intra_refresh=0 / rc_lookahead=48 / rc=2pass / mbtree=1 / bitrate=5000 / ratetol=1.0 / qcomp=0.50 / qpmin=6 / qpmax=51 / qpstep=4 / cplxblur=20.0 / qblur=0.5 / vbv_maxrate=7500 / vbv_bufsize=10000 / nal_hrd=vbr / filler=0 / ip_ratio=1.40 / aq=1:1.00
Language : English
Default : Yes
Forced : Yes
Audio
ID : 2
Format : AC-3
Format/Info : Audio Coding 3
Commercial name : Dolby Digital
Codec ID : A_AC3
Duration : 1 h 41 min
Bit rate mode : Constant
Bit rate : 640 kb/s
Channel(s) : 6 channels
Channel layout : L R C LFE Ls Rs
Sampling rate : 48.0 kHz
Frame rate : 31.250 FPS (1536 SPF)
Compression mode : Lossy
Stream size : 465 MiB (12%)
Service kind : Complete Main
Default : Yes
Forced : No
Text
ID : 3
Format : UTF-8
Codec ID : S_TEXT/UTF8
Codec ID/Info : UTF-8 Plain Text
Duration : 1 h 35 min
Bit rate : 1 b/s
Frame rate : 0.003 FPS
Count of elements : 18
Stream size : 821 Bytes (0%)
Language : Rundi
Default : Yes
Forced : No
-

Скриншоты

- Flarrow Films
Примечание: Релиз без рекламы.-
Скачать
Советуем установить VPN чтобы скрыть ваш IP-адрес
Сайт не распространяет и не хранит электронные версии произведений, а лишь предоставляет доступ к создаваемому пользователями каталогу ссылок на торрент-файлы, которые содержат только списки хеш-сумм
Как скачивать? (для скачивания .torrent файлов необходима регистрация)
[Профиль] [ЛС]
Показать сообщения:    

Текущее время: Сегодня 10:31

Часовой пояс: GMT + 4



Вы не можете начинать темы
Вы не можете отвечать на сообщения
Вы не можете редактировать свои сообщения
Вы не можете удалять свои сообщения
Вы не можете голосовать в опросах
Вы не можете прикреплять файлы к сообщениям
Вы не можете скачивать файлы