Скачать торрент Лео / Leo (2023) WEB-DLRip-AVC | P | TVShows

 
Автор Сообщение

bazalt ®

Стаж: 13 лет

Сообщений: 2181

Пост Пост: #1 от 20-Апр-2024 10:15

[Цитировать]

Информация о фильме
Название: Лео
Оригинальное название: Leo
Год выпуска: 2023
Жанр: Мультфильм, комедия, семейный
Режиссер: Роберт Марианетти, Роберт Шмигель, Дэвид Уочтенхейм
В ролях: Адам Сэндлер, Билл Бёрр, Сесили Стронг, Джейсон Александер, Роб Шнайдер, Эллисон Стронг, Джо Кой, Сэди Сэндлер, Санни Сэндлер, Култер Ибанез

О фильме:
Ящерица Лео и черепаха Сквиртл живут в террариуме класса начальной школы. Они десятилетиями наблюдали взросление школьников, неплохо разбираются в детской психологии и даже умеют говорить, но скрывают это от людей. Однажды Лео слышит, что ящерицы его вида живут до 75 лет, а когда вычисляет, что ему уже 74, то в ужасе осознаёт, что жизнь прошла, а он так ничего толком и не видел. Как раз в это время замещающая учительница решает научить детей ответственности и поручает брать питомцев класса на выходные домой. Лео пытается воспользоваться этой возможностью и сбежать на волю, но в процессе пробалтывается и теперь вынужден раздавать пятиклассникам жизненные советы, чтобы они никому не рассказали о его тайне.
Выпущено: США, Австралия, Netflix, Happy Madison Productions, Animal Logic, Screen NSW
Продолжительность: 01:46:47
Перевод 1: Дубляж (неофициальный) | Red Head Sound
Перевод 2: Профессиональный (многоголосый, закадровый) | TVShows
Субтитры: Русские (Full), английские (SDH)
Файл
Формат: Matroska
Качество: WEB-DLRip-AVC
Видео: 1024x512 at 24.000 fps, x264@L4.1, ~1620 kbps
Аудио 1: AC3, 6 ch, ~448 kbps - | Русский | | Red Head Sound
Аудио 2: AC3, 6 ch, ~384 kbps - | Русский | | TVShows
Формат субтитров: softsub (SRT)


M/I

General
Unique ID : 24317581121785101771640949454508505090 (0x124B6550E77E2471D9D0853D9B41B802)
Complete name : R:Leo.2023.DUB.MVO.WEB-DLRip.x264.seleZen.mkv
Format : Matroska
Format version : Version 4
File size : 1.83 GiB
Duration : 1 h 46 min
Overall bit rate : 2 454 kb/s
Frame rate : 24.000 FPS
Movie name : Leo.2023.DUB.MVO.WEB-DLRip.x264.seleZen
Encoded date : 2024-03-22 07:52:06 UTC
Writing application : mkvmerge v83.0 ('Circle Of Friends') 64-bit
Writing library : libebml v1.4.5 + libmatroska v1.7.1
Cover : Yes
Attachments : cover.jpg / small_cover.jpg
Video
ID : 1
Format : AVC
Format/Info : Advanced Video Codec
Format profile : High@L4.1
Format settings : CABAC / 10 Ref Frames
Format settings, CABAC : Yes
Format settings, Reference : 10 frames
Codec ID : V_MPEG4/ISO/AVC
Duration : 1 h 46 min
Bit rate : 1 620 kb/s
Width : 1 024 pixels
Height : 512 pixels
Display aspect ratio : 2.000
Frame rate mode : Constant
Frame rate : 24.000 FPS
Color space : YUV
Chroma subsampling : 4:2:0
Bit depth : 8 bits
Scan type : Progressive
Bits/(Pixel*Frame) : 0.129
Stream size : 1.21 GiB (66%)
Title :
Writing library : x264 core 164 r3172 -DoMiNo
Encoding settings : cabac=1 / ref=10 / deblock=1:-2:-1 / analyse=0x3:0x133 / me=umh / subme=10 / psy=1 / psy_rd=1.05:0.05 / mixed_ref=1 / me_range=32 / chroma_me=1 / trellis=2 / 8x8dct=1 / cqm=0 / deadzone=21,11 / fast_pskip=0 / chroma_qp_offset=-3 / threads=17 / lookahead_threads=4 / sliced_threads=0 / nr=0 / decimate=1 / interlaced=0 / bluray_compat=0 / constrained_intra=0 / bframes=10 / b_pyramid=2 / b_adapt=2 / b_bias=0 / direct=3 / weightb=1 / open_gop=0 / weightp=2 / keyint=250 / keyint_min=24 / scenecut=40 / intra_refresh=0 / rc_lookahead=60 / rc=crf / mbtree=0 / crf=18.0 / qcomp=0.60 / qpmin=0 / qpmax=69 / qpstep=4 / vbv_maxrate=50000 / vbv_bufsize=62500 / crf_max=0.0 / nal_hrd=none / filler=0 / ip_ratio=1.40 / pb_ratio=1.30 / aq=1:0.90
Language : English
Default : Yes
Forced : No
Audio #1
ID : 2
Format : AC-3
Format/Info : Audio Coding 3
Commercial name : Dolby Digital
Codec ID : A_AC3
Duration : 1 h 46 min
Bit rate mode : Constant
Bit rate : 448 kb/s
Channel(s) : 6 channels
Channel layout : L R C LFE Ls Rs
Sampling rate : 48.0 kHz
Frame rate : 31.250 FPS (1536 SPF)
Compression mode : Lossy
Stream size : 342 MiB (18%)
Title : Dub - Red Head Sound
Language : Russian
Service kind : Complete Main
Default : Yes
Forced : No
Audio #2
ID : 3
Format : AC-3
Format/Info : Audio Coding 3
Commercial name : Dolby Digital
Codec ID : A_AC3
Duration : 1 h 46 min
Bit rate mode : Constant
Bit rate : 384 kb/s
Channel(s) : 6 channels
Channel layout : L R C LFE Ls Rs
Sampling rate : 48.0 kHz
Frame rate : 31.250 FPS (1536 SPF)
Compression mode : Lossy
Stream size : 293 MiB (16%)
Title : MVO -TVShows
Language : Russian
Service kind : Complete Main
Default : No
Forced : No
Text #1
ID : 4
Format : UTF-8
Codec ID : S_TEXT/UTF8
Codec ID/Info : UTF-8 Plain Text
Duration : 1 h 41 min
Bit rate : 119 b/s
Frame rate : 0.248 FPS
Count of elements : 1509
Stream size : 89.1 KiB (0%)
Language : Russian
Default : No
Forced : No
Text #2
ID : 5
Format : UTF-8
Codec ID : S_TEXT/UTF8
Codec ID/Info : UTF-8 Plain Text
Duration : 1 h 41 min
Bit rate : 95 b/s
Frame rate : 0.307 FPS
Count of elements : 1866
Stream size : 71.0 KiB (0%)
Title : SDH
Language : English
Default : No
Forced : No
Menu
00:00:00.000 : en:Глава 01
00:05:50.000 : en:Глава 02
00:11:40.000 : en:Глава 03
00:17:30.000 : en:Глава 04
00:23:20.000 : en:Глава 05
00:29:10.000 : en:Глава 06
00:35:00.000 : en:Глава 07
00:40:50.000 : en:Глава 08
00:46:40.000 : en:Глава 09
00:52:30.000 : en:Глава 10
00:58:20.000 : en:Глава 11
01:04:10.000 : en:Глава 12
01:10:00.000 : en:Глава 13
01:15:50.000 : en:Глава 14
01:21:40.000 : en:Глава 15
01:27:30.000 : en:Глава 16
01:33:20.000 : en:Глава 17
01:39:10.000 : en:Глава 18
01:45:00.000 : en:Глава 19
Скачать
Советуем установить VPN чтобы скрыть ваш IP-адрес
Сайт не распространяет и не хранит электронные версии произведений, а лишь предоставляет доступ к создаваемому пользователями каталогу ссылок на торрент-файлы, которые содержат только списки хеш-сумм
Как скачивать? (для скачивания .torrent файлов необходима регистрация)
[Профиль] [ЛС]
Показать сообщения:    

Текущее время: Сегодня 10:48

Часовой пояс: GMT + 4



Вы не можете начинать темы
Вы не можете отвечать на сообщения
Вы не можете редактировать свои сообщения
Вы не можете удалять свои сообщения
Вы не можете голосовать в опросах
Вы не можете прикреплять файлы к сообщениям
Вы не можете скачивать файлы