Скачать торрент Что скрывает океан / Ocean Deep (2023) WEB-DLRip 720p | D | Локализованная версия

 
Автор Сообщение

bazalt ®

Стаж: 13 лет

Сообщений: 2181

Пост Пост: #1 от 20-Апр-2024 01:25

[Цитировать]

Информация о фильме
Название: Что скрывает океан
Оригинальное название: Ocean Deep
Год выхода: 2023
Жанр: детектив
Режиссер: Лиза Болтон
В ролях: Конни Нильсен, Анна Уолтон, Мадс Сьёгор Петтерсен, Лохланн О’Мира, Агни Скотт, Майкл Парр, Уэйн Энтони Гордон, Колин Беннетт, Ли Старки, Вивьен Миллс

О фильме:
Три месяца назад художница Мара потеряла своего мужа Рори, занимавшегося изучением моря. Он был объявлен без вести пропавшим, и поиски было решено приостановить. Пытаясь справиться со своим горем, женщина остается одна в ветхом доме, который постоянно протекает. Она никак не может отпустить Рори и видит его призрак повсюду, погружаясь в воспоминания о нём. Мара намерена самостоятельно узнать, что же случилось с ее супругом, но даже не подозревает, что ей грозит большая опасность.
Выпущено: Великобритания / Highfield Grange Studios, Goldfinch Entertainment, MSR Media
Продолжительность: 01:26:05
Перевод: Дублированный | OKKO
Субтитры: Русские (Forced -хардсаб)
Файл
Формат: Matroska
Качество: WEB-DLRip 720p | Локализованная версия
Видео: 1280x536 at 24.000 fps, x264@L4.1, ~1885 kbps
Аудио: AC3, 6 ch, ~384 kbps - | Русский |
Формат субтитров: хардсаб


M/I

x264 [info]: frame I:938 Avg QP:15.23 size: 73088
x264 [info]: frame P:20991 Avg QP:16.04 size: 26850
x264 [info]: frame B:102031 Avg QP:18.26 size: 5731
General
Unique ID : 135763089608891464442031312518895638576 (0x6623051C3B466D8FFFBB65C90D741830)
Complete name : I:Ocean.Deep.2023.DUB.WEB-DLRip.720p.x264.seleZen.mkv
Format : Matroska
Format version : Version 4
File size : 1.37 GiB
Duration : 1 h 26 min
Overall bit rate : 2 271 kb/s
Frame rate : 24.000 FPS
Movie name : Ocean.Deep.2023.DUB.WEB-DLRip.720p.x264.seleZen
Encoded date : 2024-03-30 14:43:31 UTC
Writing application : mkvmerge v83.0 ('Circle Of Friends') 64-bit
Writing library : libebml v1.4.5 + libmatroska v1.7.1
Cover : Yes
Attachments : cover.jpg / small_cover.jpg
Video
ID : 1
Format : AVC
Format/Info : Advanced Video Codec
Format profile : High@L4.1
Format settings : CABAC / 5 Ref Frames
Format settings, CABAC : Yes
Format settings, Reference : 5 frames
Codec ID : V_MPEG4/ISO/AVC
Duration : 1 h 26 min
Bit rate : 1 885 kb/s
Width : 1 280 pixels
Height : 536 pixels
Display aspect ratio : 2.40:1
Frame rate mode : Constant
Frame rate : 24.000 FPS
Color space : YUV
Chroma subsampling : 4:2:0
Bit depth : 8 bits
Scan type : Progressive
Bits/(Pixel*Frame) : 0.114
Stream size : 1.13 GiB (83%)
Title :
Writing library : x264 core 164 r3190 -DoMiNo
Encoding settings : cabac=1 / ref=5 / deblock=1:-2:-1 / analyse=0x3:0x133 / me=umh / subme=10 / psy=1 / psy_rd=1.00:0.15 / mixed_ref=1 / me_range=32 / chroma_me=1 / trellis=2 / 8x8dct=1 / cqm=0 / deadzone=21,11 / fast_pskip=0 / chroma_qp_offset=-3 / threads=17 / lookahead_threads=4 / sliced_threads=0 / nr=0 / decimate=0 / interlaced=0 / bluray_compat=0 / constrained_intra=0 / bframes=12 / b_pyramid=2 / b_adapt=2 / b_bias=0 / direct=1 / weightb=1 / open_gop=0 / weightp=2 / keyint=240 / keyint_min=24 / scenecut=40 / intra_refresh=0 / rc_lookahead=60 / rc=crf / mbtree=0 / crf=18.8 / qcomp=0.60 / qpmin=0 / qpmax=69 / qpstep=4 / vbv_maxrate=50000 / vbv_bufsize=62500 / crf_max=0.0 / nal_hrd=none / filler=0 / ip_ratio=1.35 / pb_ratio=1.30 / aq=3:0.90
Language : English
Default : Yes
Forced : No
Color range : Limited
Color primaries : BT.709
Transfer characteristics : BT.709
Matrix coefficients : BT.709
Audio
ID : 2
Format : AC-3
Format/Info : Audio Coding 3
Commercial name : Dolby Digital
Codec ID : A_AC3
Duration : 1 h 26 min
Bit rate mode : Constant
Bit rate : 384 kb/s
Channel(s) : 6 channels
Channel layout : L R C LFE Ls Rs
Sampling rate : 48.0 kHz
Frame rate : 31.250 FPS (1536 SPF)
Compression mode : Lossy
Stream size : 236 MiB (17%)
Title : Дублированный | OKKO
Language : Russian
Service kind : Complete Main
Default : Yes
Forced : No
Menu
00:00:00.000 : en:Chapter 01
00:05:50.000 : en:Chapter 02
00:11:40.000 : en:Chapter 03
00:17:30.000 : en:Chapter 04
00:23:20.000 : en:Chapter 05
00:29:10.000 : en:Chapter 06
00:35:00.000 : en:Chapter 07
00:40:50.000 : en:Chapter 08
00:46:40.000 : en:Chapter 09
00:52:30.000 : en:Chapter 10
00:58:20.000 : en:Chapter 11
01:04:10.000 : en:Chapter 12
01:10:00.000 : en:Chapter 13
01:15:50.000 : en:Chapter 14
01:21:40.000 : en:Chapter 15
Скачать
Советуем установить VPN чтобы скрыть ваш IP-адрес
Сайт не распространяет и не хранит электронные версии произведений, а лишь предоставляет доступ к создаваемому пользователями каталогу ссылок на торрент-файлы, которые содержат только списки хеш-сумм
Как скачивать? (для скачивания .torrent файлов необходима регистрация)
[Профиль] [ЛС]
Показать сообщения:    

Текущее время: Сегодня 11:56

Часовой пояс: GMT + 4



Вы не можете начинать темы
Вы не можете отвечать на сообщения
Вы не можете редактировать свои сообщения
Вы не можете удалять свои сообщения
Вы не можете голосовать в опросах
Вы не можете прикреплять файлы к сообщениям
Вы не можете скачивать файлы