Скачать торрент Осьминог (2023) WEB-DL 1080p

 
Автор Сообщение

bazalt ®

Стаж: 13 лет

Сообщений: 2181

Пост Пост: #1 от 19-Апр-2024 10:35

[Цитировать]


Информация о фильме
Оригинальное название: Осьминог
Год выхода: 2023
Жанр: драма, комедия
Режиссер: Алексей Степанов
В ролях: Даниил Воробьёв, Сабина Ахмедова, Мария Миронова (II), Анфиса Черных, Наталья Рудова, Мариэтта Азарян, Дарья Мазурова, Данила Якушев, Вячеслав Крикунов
О фильме: Один из лучших семейных психологов страны неожиданно решает провести бесплатный экспериментальный курс с использованием метода психодрамы. Доктор собирает в своём доме четырёх женщин, каждая из которых приезжает со своей сложной жизненной ситуацией. В процессе работы становится понятно, что больше всех в помощи нуждается сам Доктор.

Выпущено: Россия / SoFilm
Продолжительность: 01:31:29
Перевод: не требуется
Файл
Формат: MKV
Качество: WEB-DL 1080p
Видео: MPEG-4 AVC, 6144 Кбит/с, 1920x1080
Аудио: AC3, 6 ch, 640 Кбит/с
Субтитры: Нет
Дополнительно: Нет

MediaInfo:

Complete name : Osminog.2023.WEB-DL.1080p.ELEKTRI4KA.UNIONGANG.mkv
Format : Matroska
Format version : Version 4
File size : 4.32 GiB
Duration : 1 h 31 min
Overall bit rate mode : Constant
Overall bit rate : 6 759 kb/s
Movie name : Osminog.2023.WEB-DL.1080p.ELEKTRI4KA.UNIONGANG.
Encoded date : UTC 2023-12-26 22:11:01
Writing application : mkvmerge v68.0.0 ('The Curtain') 64-bit
Writing library : libebml v1.4.2 + libmatroska v1.6.4
Video
ID : 1
Format : AVC
Format/Info : Advanced Video Codec
Format profile : Baseline@L4
Format settings : 2 Ref Frames
Format settings, CABAC : No
Format settings, Reference frames : 2 frames
Format settings, GOP : M=1, N=25
Codec ID : V_MPEG4/ISO/AVC
Duration : 1 h 31 min
Bit rate mode : Constant
Bit rate : 6 144 kb/s
Width : 1 920 pixels
Height : 1 080 pixels
Display aspect ratio : 16:9
Frame rate mode : Constant
Frame rate : 25.000 FPS
Color space : YUV
Chroma subsampling : 4:2:0
Bit depth : 8 bits
Scan type : Progressive
Bits/(Pixel*Frame) : 0.119
Stream size : 3.91 GiB (90%)
Default : Yes
Forced : No
Audio
ID : 2
Format : AC-3
Format/Info : Audio Coding 3
Commercial name : Dolby Digital
Codec ID : A_AC3
Duration : 1 h 31 min
Bit rate mode : Constant
Bit rate : 640 kb/s
Channel(s) : 6 channels
Channel layout : L R C LFE Ls Rs
Sampling rate : 48.0 kHz
Frame rate : 31.250 FPS (1536 SPF)
Compression mode : Lossy
Stream size : 419 MiB (9%)
Title : Original (KION)
Language : Russian
Service kind : Complete Main
Default : Yes
Forced : No

Скриншоты



Скачать
Советуем установить VPN чтобы скрыть ваш IP-адрес
Сайт не распространяет и не хранит электронные версии произведений, а лишь предоставляет доступ к создаваемому пользователями каталогу ссылок на торрент-файлы, которые содержат только списки хеш-сумм
Как скачивать? (для скачивания .torrent файлов необходима регистрация)
[Профиль] [ЛС]
Показать сообщения:    

Текущее время: Сегодня 11:35

Часовой пояс: GMT + 4



Вы не можете начинать темы
Вы не можете отвечать на сообщения
Вы не можете редактировать свои сообщения
Вы не можете удалять свои сообщения
Вы не можете голосовать в опросах
Вы не можете прикреплять файлы к сообщениям
Вы не можете скачивать файлы