Скачать торрент Царевна и Дракон. Магическая книга [S01] (2023) WEB-DL 1080p

 
Автор Сообщение

bazalt ®

Стаж: 13 лет

Сообщений: 2181

Пост Пост: #1 от 16-Апр-2024 08:50

[Цитировать]


Оригинальное название: Царевна и Дракон. Магическая книга
Год выпуска: 2023
Жанр: мультфильм, приключения
Выпущено: Россия
Режиссер: Владимир Саков, Марина Нефедова
В ролях: Таисия Тришина, Филипп Лебедев, Денис Некрасов, Андрей Казанцев, Александр Матвеев, Константин Карасик, Мария Борисова, Ольга Сирина, Никита Прозоровский, Татьяна Манетина
Описание: Юной царевне Варваре очень скучно жить среди правильных взрослых: ей хочется приключений, авантюр, волшебства и новых друзей. Все это она получает благодаря волшебной книге, которая в мгновение ока переносит ее в волшебную страну, где ее ждут говорящие звери, сказочные существа и настоящая магия. Помогает непоседливой Варваре ее верный друг Дракоша, который всегда придет на помощь в трудную минуту. Благодаря своим волшебным приключениям царевна познает мир и учится быстрее, чем на настоящих скучных уроках!

Продолжительность: 26 x 00:08:00
Перевод: не требуется
Качество: WEB-DL 1080p | OKKO
Формат: MKV
Видео: AVC, 1920x1080, 25 fps, ~ 5000 kbps
Аудио: [Русский] AAC, 48 KHz, 2 ch, 256 kbps
Субтитры: отсутствуют

Список серий

1. Простое волшебство
2. Волшебная география
3. Кем быть лучше
4. Опасные шалости
5. Барабашик и голиаф
6. Королевская аккуратность
7. Сломанное время
8. Радуга - это важно
9. Неправильный торт
10. Ни слова о волшебстве
11. Большие поиски
12. Нечестная сила
13. Новое платье принцессы
14. Острый нюх
15. Чудесный свет
16. Ненужные подарки
17. Шкатулка с секретом
18. Строптивая дверь
19. Что бы сделал архимед
20. Торт за полчаса
21. Невкусное волшебство
22. Фальшивый фокусник
23. Как читать мысли
24. Стороны света
25. Да что может случиться
26. Опасный смех

Подробные технические данные

General
Unique ID : 253599250227738123550647544328355878252 (0xBEC970619180F6D05E109732B5B0956C)
Complete name : E:Tzarevna.I.Drakon.Magicheskaya.Kniga.S01.1080pЦаревна и Дракон. Магическая книга. Сезон 1. Серия 01.mkv
Format : Matroska
Format version : Version 4
File size : 299 MiB
Duration : 8 min 0 s
Overall bit rate : 5 215 kb/s
Encoded date : UTC 2024-03-07 08:06:31
Writing application : mkvmerge v62.0.0 ('Apollo') 64-bit
Writing library : libebml v1.4.2 + libmatroska v1.6.4
Video
ID : 1
Format : AVC
Format/Info : Advanced Video Codec
Format profile : High@L4
Format settings : CABAC / 3 Ref Frames
Format settings, CABAC : Yes
Format settings, Reference frames : 3 frames
Codec ID : V_MPEG4/ISO/AVC
Duration : 8 min 0 s
Bit rate : 5 000 kb/s
Width : 1 920 pixels
Height : 1 080 pixels
Display aspect ratio : 16:9
Frame rate mode : Constant
Frame rate : 25.000 FPS
Color space : YUV
Chroma subsampling : 4:2:0
Bit depth : 8 bits
Scan type : Progressive
Bits/(Pixel*Frame) : 0.096
Stream size : 284 MiB (95%)
Writing library : x264 core 164 r3095 baee400
Encoding settings : cabac=1 / ref=4 / deblock=1:-1:-1 / analyse=0x3:0x133 / me=umh / subme=9 / psy=1 / psy_rd=0.40:1.00 / mixed_ref=1 / me_range=24 / chroma_me=1 / trellis=0 / 8x8dct=1 / cqm=0 / deadzone=21,11 / fast_pskip=1 / chroma_qp_offset=-2 / threads=3 / lookahead_threads=1 / sliced_threads=0 / nr=0 / decimate=1 / interlaced=0 / bluray_compat=0 / stitchable=1 / constrained_intra=0 / bframes=8 / b_pyramid=1 / b_adapt=0 / b_bias=0 / direct=3 / weightb=1 / open_gop=0 / weightp=2 / keyint=75 / keyint_min=38 / scenecut=0 / intra_refresh=0 / rc_lookahead=40 / rc=2pass / mbtree=1 / bitrate=5000 / ratetol=1.0 / qcomp=0.80 / qpmin=1 / qpmax=69 / qpstep=4 / cplxblur=20.0 / qblur=0.5 / vbv_maxrate=7500 / vbv_bufsize=10000 / nal_hrd=none / filler=0 / ip_ratio=1.40 / aq=1:1.00
Default : Yes
Forced : No
Color range : Limited
Color primaries : BT.709
Transfer characteristics : BT.709
Matrix coefficients : BT.709
Audio
ID : 2
Format : AAC LC
Format/Info : Advanced Audio Codec Low Complexity
Codec ID : A_AAC-2
Duration : 8 min 0 s
Bit rate : 256 kb/s
Channel(s) : 2 channels
Channel layout : L R
Sampling rate : 48.0 kHz
Frame rate : 46.875 FPS (1024 SPF)
Compression mode : Lossy
Stream size : 14.7 MiB (5%)
Language : Russian
Default : Yes
Forced : No

Скриншоты

Не уходите сразу же после скачивания
Скачать
Советуем установить VPN чтобы скрыть ваш IP-адрес
Сайт не распространяет и не хранит электронные версии произведений, а лишь предоставляет доступ к создаваемому пользователями каталогу ссылок на торрент-файлы, которые содержат только списки хеш-сумм
Как скачивать? (для скачивания .torrent файлов необходима регистрация)
[Профиль] [ЛС]
Показать сообщения:    

Текущее время: Сегодня 10:18

Часовой пояс: GMT + 4



Вы не можете начинать темы
Вы не можете отвечать на сообщения
Вы не можете редактировать свои сообщения
Вы не можете удалять свои сообщения
Вы не можете голосовать в опросах
Вы не можете прикреплять файлы к сообщениям
Вы не можете скачивать файлы