Скачать торрент Руби Гильман: Приключения кракена-подростка / Ruby Gillman, Teenage Kraken (2023) BDRip-AVC | D | Red Head Sound

 
Автор Сообщение

bazalt ®

Стаж: 13 лет

Сообщений: 4975

Пост Пост: #1 от 09-Дек-2023 00:24

[Цитировать]

Информация о фильме
Название: Руби Гильман: Приключения кракена-подростка
Оригинальное название: Ruby Gillman, Teenage Kraken
Жанр: мультфильм, фэнтези, боевик, комедия, приключения, семейный
Год выпуска: 2023
Режиссер: Кирк де Микко, Фэрин Перл
Роли озвучивали : Лана Кондор, Тони Коллетт, Энни Мерфи, Сэм Ричардсон, Джейн Фонда, Колман Доминго, Блу Чепмен, Уилл Форте, Лайза Коши, Рамона Янг, Эдуардо Франко, Джабук Янг-Уайт, Николь Байер, Эко Келлум, Брианна Пейдж Арсмент

Описание:
История о семействе морских монстров, сбежавших из опасного подводного мира постоянно враждующих чудовищ и скрывающихся на виду среди людей на суше. Все идет как по маслу, пока их дочь-подросток Руби не нарушает семейное правило «нет океану», ныряя с головой в череду событий, которые навсегда изменят ее жизнь.
Страна: США, Япония
Студия: DreamWorks Animation, Universal Pictures
Продолжительность: 01:31:12
Перевод: Дубляж (неофициальный) | Red Head Sound
Субтитры: Русские (SDH), английские
Файл
Формат: Matroska
Качество: BDRip-AVC
Видео: 1024x428 at 23.976 fps, x264@L4.1, ~1847 kbps
Аудио: AC3, 6 ch, ~448 kbps - | Русский |
Формат субтитров: softsub (SRT)

M/I

General
Unique ID : 225473802903528814623931731899509278819 (0xA9A0ACC4319198451A15B2F105428863)
Complete name : O:Ruby.Gillman.Teenage.Kraken.2023.BDRip.x264.seleZen.mkv
Format : Matroska
Format version : Version 4
File size : 1.46 GiB
Duration : 1 h 31 min
Overall bit rate : 2 296 kb/s
Frame rate : 23.976 FPS
Movie name : Ruby.Gillman.Teenage.Kraken.2023.BDRip.x264.seleZen
Encoded date : 2023-09-30 12:26:31 UTC
Writing application : mkvmerge v79.0 ('Funeral Pyres') 64-bit
Writing library : libebml v1.4.4 + libmatroska v1.7.1
Cover : Yes
Attachments : cover.jpg / small_cover.jpg
Video
ID : 1
Format : AVC
Format/Info : Advanced Video Codec
Format profile : High@L4.1
Format settings : CABAC / 12 Ref Frames
Format settings, CABAC : Yes
Format settings, Reference : 12 frames
Codec ID : V_MPEG4/ISO/AVC
Duration : 1 h 31 min
Bit rate : 1 847 kb/s
Width : 1 024 pixels
Height : 428 pixels
Display aspect ratio : 2.40:1
Frame rate mode : Constant
Frame rate : 23.976 (24000/1001) FPS
Color space : YUV
Chroma subsampling : 4:2:0
Bit depth : 8 bits
Scan type : Progressive
Bits/(Pixel*Frame) : 0.176
Stream size : 1.18 GiB (80%)
Title :
Writing library : x264 core 164 r3107+58M ae98796 t_mod_New | by | X86_64]
Encoding settings : cabac=1 / ref=12 / deblock=1:-2:-2 / analyse=0x3:0x133 / me=umh / subme=11 / psy=1 / fade_compensate=0.00 / psy_rd=1.03:0.05 / mixed_ref=1 / me_range=48 / chroma_me=1 / trellis=2 / 8x8dct=1 / cqm=0 / deadzone=21,11 / fast_pskip=0 / chroma_qp_offset=-3 / threads=16 / lookahead_threads=3 / sliced_threads=0 / nr=0 / decimate=0 / interlaced=0 / bluray_compat=0 / constrained_intra=0 / fgo=0 / bframes=10 / b_pyramid=2 / b_adapt=2 / b_bias=0 / direct=3 / weightb=1 / open_gop=0 / weightp=2 / keyint=240 / keyint_min=24 / scenecut=40 / intra_refresh=0 / rc_lookahead=60 / rc=2pass / mbtree=0 / bitrate=1847 / ratetol=1.0 / qcomp=0.80 / qpmin=0:0:0 / qpmax=69:69:69 / qpstep=4 / cplxblur=20.0 / qblur=0.5 / vbv_maxrate=50000 / vbv_bufsize=62500 / nal_hrd=none / filler=0 / ip_ratio=1.20 / pb_ratio=1.30 / aq=2:0.90 / aq-sensitivity=10.00 / aq-factor=1.00:1.00:1.00 / aq2=0 / aq3=0
Language : English
Default : Yes
Forced : No
Audio
ID : 2
Format : AC-3
Format/Info : Audio Coding 3
Commercial name : Dolby Digital
Codec ID : A_AC3
Duration : 1 h 31 min
Bit rate mode : Constant
Bit rate : 448 kb/s
Channel(s) : 6 channels
Channel layout : L R C LFE Ls Rs
Sampling rate : 48.0 kHz
Frame rate : 31.250 FPS (1536 SPF)
Compression mode : Lossy
Stream size : 292 MiB (20%)
Title : DUB Red Head Sound
Language : Russian
Service kind : Complete Main
Default : Yes
Forced : No
Text #1
ID : 3
Format : UTF-8
Codec ID : S_TEXT/UTF8
Codec ID/Info : UTF-8 Plain Text
Duration : 1 h 31 min
Bit rate : 155 b/s
Frame rate : 0.373 FPS
Count of elements : 2040
Stream size : 104 KiB (0%)
Title : SDH
Language : Russian
Default : No
Forced : No
Text #2
ID : 4
Format : UTF-8
Codec ID : S_TEXT/UTF8
Codec ID/Info : UTF-8 Plain Text
Duration : 1 h 31 min
Bit rate : 85 b/s
Frame rate : 0.373 FPS
Count of elements : 2040
Stream size : 57.2 KiB (0%)
Title : English SDH
Language : English
Default : No
Forced : No
Menu
00:00:00.000 : en:Chapter 01
00:05:55.021 : en:Chapter 02
00:10:26.876 : en:Chapter 03
00:15:36.018 : en:Chapter 04
00:18:07.961 : en:Chapter 05
00:23:53.840 : en:Chapter 06
00:29:56.210 : en:Chapter 07
00:34:55.510 : en:Chapter 08
00:38:35.896 : en:Chapter 09
00:42:26.877 : en:Chapter 10
00:45:26.140 : en:Chapter 11
00:50:23.311 : en:Chapter 12
00:55:18.648 : en:Chapter 13
01:00:32.295 : en:Chapter 14
01:02:17.608 : en:Chapter 15
01:05:55.159 : en:Chapter 16
01:09:19.321 : en:Chapter 17
01:16:29.251 : en:Chapter 18
01:19:15.751 : en:Chapter 19
01:22:56.596 : en:Chapter 20
01:31:12.216 : en:Chapter 21
Скачать
Советуем установить VPN чтобы скрыть ваш IP-адрес
Сайт не распространяет и не хранит электронные версии произведений, а лишь предоставляет доступ к создаваемому пользователями каталогу ссылок на торрент-файлы, которые содержат только списки хеш-сумм
Как скачивать? (для скачивания .torrent файлов необходима регистрация)
[Профиль] [ЛС]
Показать сообщения:    

Текущее время: Сегодня 11:55

Часовой пояс: GMT + 4



Вы не можете начинать темы
Вы не можете отвечать на сообщения
Вы не можете редактировать свои сообщения
Вы не можете удалять свои сообщения
Вы не можете голосовать в опросах
Вы не можете прикреплять файлы к сообщениям
Вы не можете скачивать файлы