Скачать торрент До звезды (2023) WEB-DL 1080p от ELEKTRI4KA

 
Автор Сообщение

bazalt ®

Стаж: 13 лет

Сообщений: 4975

Пост Пост: #1 от 06-Дек-2023 15:36

[Цитировать]


«Ничем не примечательного мужчину отправляют в космос в качестве подопытного. Комедия о трагедии маленького человека»
Информация о фильме
Оригинальное название: До звезды
Год выхода: 2023
Жанр: комедия, экранизация, научная фантастика
Режиссер: Андрей Носков
В ролях: Нина Усатова, Юрий Гальцев, Александр Тютрюмов, Андрей Носков, Андрей Зибров, Софья Юрко, Светлана Щедрина, Андрей Шарков, Игорь Головин, Наталья Кутасова, Алексей Воскресенский
О фильме: Над человечеством нависла угроза: инопланетяне требуют отдать им одного жителя планеты Земля для изучения. Выбор падает на самого обычного человека по имени Борис Костиков, который проживает среднестатистическую жизнь без высшего образования и больших амбиций. Несмотря на свое бесцельное существование, Борис совсем не жаждет стать подопытным кроликом для инопланетных существ и последние дни на Земле должен провести как-то осознанно, чтобы потом не было стыдно за прожитое время.

Выпущено: Россия / Творческий центр Андрея Носкова
Продолжительность: 01:30:55
Озвучивание: Оригинальное
Файл
Формат: MKV
Качество: WEB-DL 1080p
Видео: MPEG-4 AVC, 5000 Kb/s, 1920x800
Аудио: Russian: AC3, 256 Kb/s (2 ch) / E-AC3, 256 Kb/s (2 ch)
Субтитры: Нет
Дополнительно: Нет
Релиз группы: &

Инфо-файл:

Complete name: Do.zvezdyi.2023.WEB-DL.1080p.ELEKTRI4KA.UNIONGANG.mkv
Format: Matroska
Format version: Version 4
File size: 3.49 GiB
Duration: 1 h 30 min
Overall bit rate: 5 497 kb/s
Movie name: Do.zvezdyi.2023.WEB-DL.1080p.ELEKTRI4KA.UNIONGANG.
Encoded date: UTC 2023-11-05 14:46:15
Writing application: mkvmerge v8.3.0 ('Over the Horizon') 64bit
Writing library: libebml v1.3.1 + libmatroska v1.4.2
Video
ID: 1
Format: AVC
Format/Info: Advanced Video Codec
Format profile: High@L4
Format settings: CABAC / 3 Ref Frames
Format settings, CABAC: Yes
Format settings, Reference frames: 3 frames
Codec ID: V_MPEG4/ISO/AVC
Duration: 1 h 30 min
Bit rate: 5 000 kb/s
Width: 1 920 pixels
Height: 800 pixels
Display aspect ratio: 2.40:1
Frame rate mode: Constant
Frame rate: 25.000 FPS
Color space: YUV
Chroma subsampling: 4:2:0
Bit depth: 8 bits
Scan type: Progressive
Bits/(Pixel*Frame): 0.130
Stream size: 3.16 GiB (91%)
Writing library: x264 core 161 r3048 b86ae3c
Encoding settings: cabac=1 / ref=4 / deblock=1:1:1 / analyse=0x3:0x133 / me=umh / subme=9 / psy=1 / psy_rd=0.40:1.00 / mixed_ref=1 / me_range=24 / chroma_me=1 / trellis=0 / 8x8dct=1 / cqm=0 / deadzone=21, 11 / fast_pskip=1 / chroma_qp_offset=-2 / threads=25 / lookahead_threads=2 / sliced_threads=0 / nr=0 / decimate=1 / interlaced=0 / bluray_compat=0 / constrained_intra=0 / bframes=8 / b_pyramid=1 / b_adapt=1 / b_bias=0 / direct=3 / weightb=1 / open_gop=0 / weightp=2 / keyint=75 / keyint_min=38 / scenecut=0 / intra_refresh=0 / rc_lookahead=30 / rc=2pass / mbtree=1 / bitrate=5000 / ratetol=1.0 / qcomp=0.80 / qpmin=1 / qpmax=69 / qpstep=4 / cplxblur=20.0 / qblur=0.5 / vbv_maxrate=7500 / vbv_bufsize=10000 / nal_hrd=none / filler=0 / ip_ratio=1.40 / aq=1:1.00
Default: Yes
Forced: No
Audio #1
ID: 2
Format: AC-3
Format/Info: Audio Coding 3
Commercial name: Dolby Digital
Codec ID: A_AC3
Duration: 1 h 30 min
Bit rate mode: Constant
Bit rate: 256 kb/s
Channel(s): 2 channels
Channel layout: L R
Sampling rate: 48.0 kHz
Frame rate: 31.250 FPS (1536 SPF)
Compression mode: Lossy
Stream size: 166 MiB (5%)
Title: Original AC3
Language: Russian
Service kind: Complete Main
Default: Yes
Forced: Yes
Audio #2
ID: 3
Format: E-AC-3
Format/Info: Enhanced AC-3
Commercial name: Dolby Digital Plus
Codec ID: A_EAC3
Duration: 1 h 30 min
Bit rate mode: Constant
Bit rate: 256 kb/s
Channel(s): 2 channels
Channel layout: L R
Sampling rate: 48.0 kHz
Frame rate: 31.250 FPS (1536 SPF)
Compression mode: Lossy
Stream size: 166 MiB (5%)
Title: Original EAC3
Language: Russian
Service kind: Complete Main
Default: No
Forced: No

Скриншоты

Скачать
Советуем установить VPN чтобы скрыть ваш IP-адрес
Сайт не распространяет и не хранит электронные версии произведений, а лишь предоставляет доступ к создаваемому пользователями каталогу ссылок на торрент-файлы, которые содержат только списки хеш-сумм
Как скачивать? (для скачивания .torrent файлов необходима регистрация)
[Профиль] [ЛС]
Показать сообщения:    

Текущее время: Сегодня 11:20

Часовой пояс: GMT + 4



Вы не можете начинать темы
Вы не можете отвечать на сообщения
Вы не можете редактировать свои сообщения
Вы не можете удалять свои сообщения
Вы не можете голосовать в опросах
Вы не можете прикреплять файлы к сообщениям
Вы не можете скачивать файлы