(Rock) ДДТ (DDT, Юрий Шевчук) - Дискография (1982-2010) [59 альбомов (69 CD)], lossless, FLAC(image+.cue)

Ответить на тему
 
Автор Сообщение

admin ®

Пол:

Стаж: 10 лет

Сообщений: 764

Пост Пост: #1 от 27-Июл-2009 11:36

[Цитировать]

ДДТ (DDT, Юрий Шевчук) - Дискография (1982-2010) [59 альбомов (69 CD)], lossless, FLAC(image+.cue)

Жанр: Rock
Производитель диска: Россия
Аудио кодек: FLAC
Битрейт аудио: lossless
Продолжительность: 64:05:04
ВНИМАНИЕ! Раздача обновлена 03.08.2011!
Информация в первом посте
Трэклист:
ДДТ Официальная дискография

1982 Свинья на радуге (1999, RS 287) (КВАДРО-ДИСК) (Продолжительность: 0:54:46)


01. Счастливый день (4:08)
02. За 50 копеек (2:02)
03. Безжизненный край (3:29)
04. Ночь (5:21)
05. История (3:47)
06. Блюз (8:10)
07. Свинья на радуге (1:24)
08. Рыба (5:15)
09. Бродяга (3:12)
10. Дождь (3:44)
11. Не стреляй (2:24)
12. Игра (2:34)
13. Инопланетянин (2:16)
14. Вечер (3:08)
15. Все идет своим чередом (3:50)

Отчет EAC

Exact Audio Copy V0.99 prebeta 5 from 4. May 2009
Отчёт EAC об извлечении, выполненном 25. июля 2011, 13:47
DDT / Свинья на радуге
Дисковод: PIONEER DVD-RW DVR-215D Adapter: 3 ID: 0
Режим чтения : Достоверность
Использование точного потока : Да
Отключение кэша аудио : Да
Использование указателей C2 : Нет
Коррекция смещения при чтении : 48
Способность читать области Lead-in и Lead-out : Нет
Заполнение пропущенных сэмплов тишиной : Да
Удаление блоков с тишиной в начале и конце : Нет
При вычислениях CRC использовались нулевые сэмплы : Да
Интерфейс : Встроенный Win32-интерфейс для Win NT/2000
Выходной формат : Внутренние WAV-операции
Формат сэмплов : 44.100 Гц; 16 бит; стерео
TOC извлечённого CD
Трек | Старт | Длительность | Начальный сектор | Конечный сектор
---------------------------------------------------------------------
1 | 0:00.00 | 4:08.12 | 0 | 18611
2 | 4:08.12 | 2:03.08 | 18612 | 27844
3 | 6:11.20 | 3:29.12 | 27845 | 43531
4 | 9:40.32 | 5:21.06 | 43532 | 67612
5 | 15:01.38 | 3:47.12 | 67613 | 84649
6 | 18:48.50 | 8:10.12 | 84650 | 121411
7 | 26:58.62 | 1:24.12 | 121412 | 127723
8 | 28:22.74 | 5:15.12 |
Скачать

Скачать торрент! (Rock) ДДТ (DDT, Юрий Шевчук) - Дискография (1982-2010) [59 альбомов (69 CD)], lossless, FLAC(image+.cue)

Как скачивать? · Что такое торрент? · Рейтинг и ограничения

Сайт не распространяет и не хранит электронные версии произведений, а лишь предоставляет доступ к создаваемому пользователями каталогу ссылок на торрент-файлы, которые содержат только списки хеш-сумм

[Профиль] [ЛС]
Показать сообщения:    
Ответить на тему

Текущее время: Сегодня 02:34

Часовой пояс: GMT + 4



Вы не можете начинать темы
Вы не можете отвечать на сообщения
Вы не можете редактировать свои сообщения
Вы не можете удалять свои сообщения
Вы не можете голосовать в опросах
Вы не можете прикреплять файлы к сообщениям
Вы не можете скачивать файлы