Скачать торрент Pink Floyd - Wish You Were Here [24-bit Hi-Res] (1975/2021) FLAC

 
Автор Сообщение

bazalt ®

Стаж: 13 лет

Сообщений: 1540

Пост Пост: #1 от 21-Апр-2023 02:24

[Цитировать]


Название: Wish You Were Here
Исполнитель: Pink Floyd
Год: 1975/2021
Жанр: Progressive-Rock
Страна: United Kingdom
Продолжительность: 00:44:11
Формат/Кодек: FLAC
Тип рипа: Tracks
Битрейт аудио: Lossless
Разрядность: 24 Bit/192 kHz
Носитель: WEB

Stream

Трек-лист

01. Shine On You Crazy Diamond (Pts. 1-5) (13:30)
02. Welcome To The Machine (7:33)
03. Have A Cigar (5:07)
04. Wish You Were Here (5:38)
05. Shine On You Crazy Diamond (Pts. 6-9) (12:24)

DR
foobar2000 1.1.10 / Dynamic Range Meter 1.1.1
--------------------------------------------------------------------------------
Analyzed: Pink Floyd / Wish You Were Here
--------------------------------------------------------------------------------
DR Peak RMS Duration Track
--------------------------------------------------------------------------------
DR12 -2.97 dB -17.94 dB 13:30 01-Shine On You Crazy Diamond, Pts. 1-5 (2011 Remaster)
DR11 -3.06 dB -17.48 dB 7:33 02-Welcome To The Machine (2011 Remaster)
DR12 -3.03 dB -17.13 dB 5:07 03-Have A Cigar (2011 Remaster)
DR12 -3.02 dB -20.22 dB 5:38 04-Wish You Were Here (2011 Remaster)
DR11 -3.06 dB -18.21 dB 12:24 05-Shine On You Crazy Diamond, Pts. 6-9 (2011 Remaster)
--------------------------------------------------------------------------------
Number of tracks: 5
Official DR value: DR12
Samplerate: 192000 Hz
Channels: 2
Bits per sample: 24
Bitrate: 5405 kbps
Codec: FLAC
================================================================================
Скачать
Советуем установить VPN чтобы скрыть ваш IP-адрес
Сайт не распространяет и не хранит электронные версии произведений, а лишь предоставляет доступ к создаваемому пользователями каталогу ссылок на торрент-файлы, которые содержат только списки хеш-сумм
Как скачивать? (для скачивания .torrent файлов необходима регистрация)
[Профиль] [ЛС]

semenovvladlen380

Стаж: 13 дней

Сообщений: 1

Пост Пост: #2 от 11-Июн-2024 19:06 (спустя 1 год 1 месяц)

[Цитировать]

Крутой, спасибо

_________________
https://psyex.pro/
[Профиль] [ЛС]
Показать сообщения:    

Текущее время: Сегодня 13:05

Часовой пояс: GMT + 4



Вы не можете начинать темы
Вы не можете отвечать на сообщения
Вы не можете редактировать свои сообщения
Вы не можете удалять свои сообщения
Вы не можете голосовать в опросах
Вы не можете прикреплять файлы к сообщениям
Вы не можете скачивать файлы