От семи до двенадцати (Хасан Бакаев, Екатерина Сташевская-Народицкая, Юрий Фридман) [1965, приключения, киноальманах, SATRip]

Ответить на тему
 
Автор Сообщение

user ®

Стаж: 7 лет 7 месяцев

Сообщений: 20008

Пост Пост: #1 от 15-Сен-2013 14:45

[Цитировать]

От семи до двенадцати
Жанр: приключения, кино-альманах
Год выпуска: 1965
Продолжительность: 01:11:19
Режиссёр: Хасан Бакаев, Екатерина Сташевская-Народицкая, Юрий Фридман
В ролях: Игорь Агапкин, Стас Лыкин (Лыхин), Женя Орлов, Т. Сапожникова, Олег Даль, Герман Качин, Даниил Нетребин, Зоя Фёдорова, Лена Пронина, Людмила Шагалова, Валентин Зубков, Нина Агапова, Саша Гуров, Лена Корхина, Боря Кузнецов, Миша Молокоедов, Оля Никольская, Сережа Осипов, Гриша Плоткин, Саша Сингин, Валя Соколова, Юра Титов, Слава Тырлов, Сережа Шалаевский
Описание: В состав альманаха входят короткометражные фильмы "ЧП в 4 "Б", "Черный котенок", "Зонтик".
Доп. информация: [url=http://***/forum/viewtopic.php?t=3970262]Исходник[/url]
Сэмпл: http://sendfile.su/867516
Качество видео: SATRip
Формат видео: AVI
Видео: 624х480 XviD 1 318 kbps, 25.000 fps, 0.176bit/pixel
Аудио: MPEG Audio Layer 3, 48000Hz, 2 channels, 128kbps

MediaInfo

General
Complete name : Z:\СССР\рипы_745\От семи до двенадцати 1965_Эталон67.avi
Format : AVI
Format/Info : Audio Video Interleave
File size : 742 MiB
Duration : 1h 11mn
Overall bit rate : 1 456 Kbps
Writing application : VirtualDubMod 1.5.10.3 | www.virtualdub-fr.org || (build 2550/release)
Writing library : VirtualDubMod build 2550/release
Video
ID : 0
Format : MPEG-4 Visual
Format profile : Advanced Simple@L5
Format settings, BVOP : 1
Format settings, QPel : No
Format settings, GMC : No warppoints
Format settings, Matrix : Default (H.263)
Codec ID : XVID
Codec ID/Hint : XviD
Duration : 1h 11mn
Bit rate : 1 318 Kbps
Width : 624 pixels
Height : 480 pixels
Display aspect ratio : 4:3
Frame rate : 25.000 fps
Color space : YUV
Chroma subsampling : 4:2:0
Bit depth : 8 bits
Scan type : Progressive
Compression mode : Lossy
Bits/(Pixel*Frame) : 0.176
Stream size : 672 MiB (91%)
Writing library : XviD 1.2.1 (UTC 2008-12-04)
Audio
ID : 1
Format : MPEG Audio
Format version : Version 1
Format profile : Layer 3
Codec ID : 55
Codec ID/Hint : MP3
Duration : 1h 11mn
Bit rate mode : Constant
Bit rate : 128 Kbps
Channel(s) : 2 channels
Sampling rate : 48.0 KHz
Compression mode : Lossy
Stream size : 65.3 MiB (9%)
Alignment : Aligned on interleaves
Interleave, duration : 40 ms (1.00 video frame)
Interleave, preload duration : 504 ms
Writing library : LAME3.99r
Encoding settings : -m s -V 4 -q 2 -lowpass 17 -b 128

Скриншот c названием фильма

Скриншоты

Скачать

Скачать торрент!

Как скачивать? · Что такое торрент? · Рейтинг и ограничения

Сайт не распространяет и не хранит электронные версии произведений, а лишь предоставляет доступ к создаваемому пользователями каталогу ссылок на торрент-файлы, которые содержат только списки хеш-сумм

[Профиль] [ЛС]
Показать сообщения:    
Ответить на тему

Текущее время: Сегодня 22:31

Часовой пояс: GMT + 4



Вы не можете начинать темы
Вы не можете отвечать на сообщения
Вы не можете редактировать свои сообщения
Вы не можете удалять свои сообщения
Вы не можете голосовать в опросах
Вы не можете прикреплять файлы к сообщениям
Вы не можете скачивать файлы