Война миров Z / World War Z (Марк Форстер / Marc Forster) [Театральная версия / Theatrical cut] [2013, США, Мальта, Ужасы, фантастика, боевик, триллер, драма, HDRip] Dub

Ответить на тему
 
Автор Сообщение

user ®

Стаж: 7 лет 7 месяцев

Сообщений: 20008

Пост Пост: #1 от 15-Сен-2013 14:45

[Цитировать]

Война миров Z / World War Z«Remember Philly!»- Страна: США, Мальта
Студия: Paramount Pictures, Apparatus Productions, GK Films, Latina Pictures...
Жанр: Ужасы, фантастика, боевик, триллер, драма
Год выпуска: 2013
Продолжительность: 01:56:01-Перевод: Профессиональный (дублированный) Лицензия
Cубтитры: нет
Оригинальная аудиодорожка: нет-Режиссер: Марк Форстер / Marc Forster
В ролях: Брэд Питт (Gerry Lane), Мирей Инос (Karin Lane), Стерлинг Джеринс (Constance Lane), Эбигейл Харгров (Rachel Lane), Даниэла Картес (Segen), Фана Мокоэна (Thierry Umutoni), Пьерфранческо Фавино (W.H.O. Doctor), Питер Капальди (W.H.O. Doctor), Мориц Бляйбтрой (W.H.O. Doctor), Рут Негга (W.H.O. Doctor)-Описание: Джерри Лейн — бывший сотрудник ООН, не раз рисковавший жизнью ради страны. Для него всегда семья стояла на первом месте, и после увольнения он все свое время проводит с любимой женой и двумя дочерьми. Однажды на город обрушился странный вирус, превращающий жителей в кровожадных зомби. Чтобы спасти свою семью, Джерри решает бежать из города, но сделать это оказывается совсем не просто. Знания и навыки, полученные им за время службы, помогают им пробраться через инфицированных. Однако, как оказывается позднее, не только их город подвергся заражению, а и весь мир. Укрыв семью в безопасном месте, Джерри возвращается на службу, чтобы выяснить причины заражения и остановить массовую эпидемию...- -Качество видео: HDRip [Scarabey]
Формат видео: AVI
Видео: 720x304 (2.37:1), 23.976 fps, XviD build 73 ~1333 kbps avg, 0.25 bit/pixel
Аудио: 48 kHz, AC3 Dolby Digital, 3/2 (L,C,R,l,r) + LFE ch, ~448 kbps
-

MediaInfo

Format : AVI
Format/Info : Audio Video Interleave
File size : 1.45 GiB
Duration : 1h 56mn
Overall bit rate : 1 791 Kbps
Writing application : VirtualDubMod 1.5.10.2 (build 2540/release)
Writing library : VirtualDubMod build 2540/release
Video
ID : 0
Format : MPEG-4 Visual
Format profile : Advanced Simple@L5
Format settings, BVOP : 1
Format settings, QPel : No
Format settings, GMC : No warppoints
Format settings, Matrix : Custom
Codec ID : XVID
Codec ID/Hint : XviD
Duration : 1h 56mn
Bit rate : 1 334 Kbps
Width : 720 pixels
Height : 304 pixels
Display aspect ratio : 2.35:1
Frame rate : 23.976 fps
Color space : YUV
Chroma subsampling : 4:2:0
Bit depth : 8 bits
Scan type : Progressive
Compression mode : Lossy
Bits/(Pixel*Frame) : 0.254
Stream size : 1.08 GiB (74%)
Writing library : XviD 73
Audio
ID : 1
Format : AC-3
Format/Info : Audio Coding 3
Mode extension : CM (complete main)
Format settings, Endianness : Big
Codec ID : 2000
Duration : 1h 56mn
Bit rate mode : Constant
Bit rate : 448 Kbps
Channel count : 6 channels
Channel positions : Front: L C R, Side: L R, LFE
Sampling rate : 48.0 KHz
Bit depth : 16 bits
Compression mode : Lossy
Stream size : 372 MiB (25%)
Alignment : Split accross interleaves
Interleave, duration : 42 ms (1.00 video frame)
Interleave, preload duration : 500 ms

Скриншоты

Скачать

Скачать торрент!

Как скачивать? · Что такое торрент? · Рейтинг и ограничения

Сайт не распространяет и не хранит электронные версии произведений, а лишь предоставляет доступ к создаваемому пользователями каталогу ссылок на торрент-файлы, которые содержат только списки хеш-сумм

[Профиль] [ЛС]
Показать сообщения:    
Ответить на тему

Текущее время: Сегодня 22:39

Часовой пояс: GMT + 4



Вы не можете начинать темы
Вы не можете отвечать на сообщения
Вы не можете редактировать свои сообщения
Вы не можете удалять свои сообщения
Вы не можете голосовать в опросах
Вы не можете прикреплять файлы к сообщениям
Вы не можете скачивать файлы