Форсаж 6 / Furious 6 (Джастин Лин / Justin Lin) [2013, боевик, триллер, драма, BDRip] DUB + Original Eng + Subs Theatrical Cut

Ответить на тему
 
Автор Сообщение

user ®

Стаж: 7 лет 7 месяцев

Сообщений: 20008

Пост Пост: #1 от 14-Сен-2013 19:50

[Цитировать]

Форсаж 6 / Furious 6 / Teatrical Cut«Все дороги принадлежат им» -
Страна: США
Жанр: боевик, триллер, драма, криминал
Год выпуска: 2013
Продолжительность: 02:10:06-Перевод: Профессиональный (дублированный) /Лицензия Blu-Ray EUR/
Оригинальная дорожка: Английский
Cубтитры: Русские (форс. + полные), Английские-Режиссер: Джастин Лин / Justin Lin-В ролях: Вин Дизель / Vin Diesel (Dominic Toretto), Пол Уокер / Paul Walker (Brian O'Conner), Дуэйн Джонсон / Dwayne Johnson (Hobbs), Мишель Родригес / Michelle Rodriguez (Letty), Люк Эванс / Luke Evans (Shaw), Тайриз Гибсон / Tyrese Gibson (Roman), Лудакрис / Ludacris (в титрах: Chris «Ludacris» Bridges) (Tej), Санг Кенг / Sung Kang (Han), Галь Гадот / Gal Gadot (Gisele), Джордана Брюстер / Jordana Brewster (Mia), Джина Карано / Gina Carano (Riley), Эльза Патаки / Elsa Pataky (Elena)-Описание:
После того как Доминик и Брайн побывали в Рио, где они ограбили и свергли империю вора в законе, их команда получила 100 миллионов, и наши герои оказались разбросаны по всему миру. Но их привычка вечно жить в бегах не даёт им покоя. Между тем, Хоббс отслеживал организацию смертельно опасных наёмников-водителей по двенадцати странам. Единственный способ остановить эту криминальную группу - это превзойти их на улицах, поэтому Хоббс просит Доминика собрать его элитную команду в Лондоне. За это он обещает полное помилование для Доминика и его друзей, чтобы они смогли наконец вернуться домой к своей семье.
- -Качество видео: BDRip /исходник: Fast and Furious 6 2013 1080p Blu-ray AVC DTS-HD MA 5.1-HDWinG/
Формат видео: AVI-Видео: XviD / 720 x 304 / 2.37:1 / 1943 kbps / 23,976 fps
Аудио #1: AC3 Dolby Digital / 48 KHz / 448 kbps / 3/2 (L,C,R,l,r) + LFE ch /RUS/
Аудио #2: AC3 Dolby Digital / 48 KHz / 448 kbps / 3/2 (L,C,R,l,r) + LFE ch /ENG, отдельно/-СЭМПЛ-Релиз: -

MediaInfo

General
Complete name : I:\Forsazh.6.2013.Theatrical.Cut.RUS.BDRip.XviD.AC3.-HQ-ViDEO\Forsazh.6.2013.Theatrical.Cut.RUS.BDRip.XviD.AC3.-HQ-ViDEO.avi
Format : AVI
Format/Info : Audio Video Interleave
Format profile : OpenDML
File size : 2.18 GiB
Duration : 2h 10mn
Overall bit rate : 2 403 Kbps
Movie name : Furious 6 / Theatrical Cut (2013)
Director : Vaippp
Genre : Action/Drama/Thriller
Writing application : VirtualDubModRus 1.5.10.2 (build 2542/release)
Writing library : VirtualDubMod build 2542/release
Original source form/Name : Movie
Copyright : HQ-ViDEO
Comment : BDRip
Video
ID : 0
Format : MPEG-4 Visual
Format profile : Advanced Simple@L5
Format settings, BVOP : 1
Format settings, QPel : No
Format settings, GMC : No warppoints
Format settings, Matrix : Custom
Codec ID : XVID
Codec ID/Hint : XviD
Duration : 2h 10mn
Bit rate : 1 943 Kbps
Width : 720 pixels
Height : 304 pixels
Display aspect ratio : 2.35:1
Frame rate : 23.976 fps
Color space : YUV
Chroma subsampling : 4:2:0
Bit depth : 8 bits
Scan type : Progressive
Compression mode : Lossy
Bits/(Pixel*Frame) : 0.370
Stream size : 1.77 GiB (81%)
Writing library : XviD 73
Audio
ID : 1
Format : AC-3
Format/Info : Audio Coding 3
Mode extension : CM (complete main)
Format settings, Endianness : Big
Codec ID : 2000
Duration : 2h 10mn
Bit rate mode : Constant
Bit rate : 448 Kbps
Channel(s) : 6 channels
Channel positions : Front: L C R, Side: L R, LFE
Sampling rate : 48.0 KHz
Bit depth : 16 bits
Compression mode : Lossy
Stream size : 417 MiB (19%)
Alignment : Split accross interleaves
Interleave, duration : 42 ms (1.00 video frame)
Interleave, preload duration : 500 ms

Скриншоты



Скачать

Скачать торрент!

Как скачивать? · Что такое торрент? · Рейтинг и ограничения

Сайт не распространяет и не хранит электронные версии произведений, а лишь предоставляет доступ к создаваемому пользователями каталогу ссылок на торрент-файлы, которые содержат только списки хеш-сумм

[Профиль] [ЛС]
Показать сообщения:    
Ответить на тему

Текущее время: Сегодня 09:52

Часовой пояс: GMT + 4



Вы не можете начинать темы
Вы не можете отвечать на сообщения
Вы не можете редактировать свои сообщения
Вы не можете удалять свои сообщения
Вы не можете голосовать в опросах
Вы не можете прикреплять файлы к сообщениям
Вы не можете скачивать файлы