Война миров Z / World War Z (Марк Форстер /Marc Forster/) [2013, США, ужасы, фантастика, боевик, триллер, приключения., BDRip] [Theatrical Cut] Dub + Original Eng + Sub Rus + Sub Eng

Ответить на тему
 
Автор Сообщение

user ®

Стаж: 7 лет 7 месяцев

Сообщений: 20008

Пост Пост: #1 от 14-Сен-2013 19:50

[Цитировать]

Война миров Z / World War Z
Theatrical Cut
Страна: США
Жанр: ужасы, фантастика, боевик, триллер, приключения.
Год выпуска: 2013
Продолжительность: 01:56:01
Перевод: Профессиональный (дублированный) |Лицензия, Paramount Pictures|
Оригинальная аудиодорожка: английский
Cубтитры: русскиe, английские
Режиссер: Марк Форстер /Marc Forster/
В ролях: Брэд Питт /Brad Pitt/, Мирей Инос /Mireille Enos/, Стерлинг Джеринс /Sterling Jerins/, Эбигейл Харгров /Abigail Hargrove/, Даниэла Картес /Daniella Kertesz/, Фана Мокоэна /Fana Mokoena/, Пьерфранческо Фавино /Pierfrancesco Favino/, Питер Капальди /Peter Capaldi/, Мориц Бляйбтрой /Moritz Bleibtreu/, Рут Негга /Ruth Negga/
Описание: Сотрудник ООН Джерри Лэйн наперегонки со временем пытается остановить заражение, способное полностью истребить человечество.
Сэмпл: http://multi-up.com/903106
Качество видео: BDRip
Формат видео: AVI
Видео: Xvid; 720 x 304; 23.976 fps; 1782 kbps; 0.340 bit/pixel
Аудио RUS: AC3 Dolby Digital; 448 Kbps; 6 channels; 48 KHz
Аудио ENG: AC3 Dolby Digital; 448 Kbps; 6 channels; 48 KHz
Формат субтитров: softsub (SRT) внешние

Релиз:
Автор рипа: [url=http://***/forum/profile.php?mode=viewprofile&u=7633397]Vaippp[/url]

MediaInfo

Общее
Полное имя : G:\Voina.Mirov.Z.2013.Theatrical.Cut.DUAL.BDRip.XviD.AC3.-HQ-ViDEO\Voina.Mirov.Z.2013.Theatrical.Cut.DUAL.BDRip.XviD.AC3.-HQ-ViDEO.avi
Формат : AVI
Формат/Информация : Audio Video Interleave
Профиль формата : OpenDML
Размер файла : 2,19 Гбайт
Продолжительность : 1 ч. 56 м.
Общий поток : 2696 Кбит/сек
Название фильма : World War Z / Theatrical Cut (2013)
Режиссёр : Vaippp
Жанр : Action/Drama/Thriller
Программа кодирования : VirtualDubModRus 1.5.10.2 (build 2542/release)
Формат оригинала/Имя : Movie
Правообладатель : HQ-ViDEO
Примечание : BDRip
Видео
Идентификатор : 0
Формат : MPEG-4 Visual
Профиль формата : Advanced Simple@L5
Параметр BVOP формата : 1
Параметр QPel формата : Нет
Параметр GMC формата : Без точки перехода
Параметр матрицы формата : Выборочная
Идентификатор кодека : XVID
Идентификатор кодека/Подсказка : XviD
Продолжительность : 1 ч. 56 м.
Битрейт : 1782 Кбит/сек
Ширина : 720 пикселей
Высота : 304 пикселя
Соотношение сторон : 2,35:1
Частота кадров : 23,976 кадра/сек
Цветовое пространство : YUV
Субдискретизация насыщенности : 4:2:0
Битовая глубина : 8 бит
Тип развёртки : Прогрессивная
Метод сжатия : С потерями
Бит/(Пиксели*Кадры) : 0.340
Размер потока : 1,44 Гбайт (66%)
Библиотека кодирования : XviD 73
Аудио #1
Идентификатор : 1
Формат : AC-3
Формат/Информация : Audio Coding 3
Расширение режима : CM (complete main)
Параметр Endianness формата : Big
Идентификатор кодека : 2000
Продолжительность : 1 ч. 56 м.
Вид битрейта : Постоянный
Битрейт : 448 Кбит/сек
Каналы : 6 каналов
Расположение каналов : Front: L C R, Side: L R, LFE
Частота : 48,0 КГц
Битовая глубина : 16 бит
Метод сжатия : С потерями
Размер потока : 372 Мбайт (17%)
Выравнивание : Разделение по промежуткам
Продолжительность промежутка : 42 мс. (1,00 видеокадр)
Время предзагрузки промежутка : 500 мс.
Аудио #2
Идентификатор : 2
Формат : AC-3
Формат/Информация : Audio Coding 3
Расширение режима : CM (complete main)
Параметр Endianness формата : Big
Идентификатор кодека : 2000
Продолжительность : 1 ч. 56 м.
Вид битрейта : Постоянный
Битрейт : 448 Кбит/сек
Каналы : 6 каналов
Расположение каналов : Front: L C R, Side: L R, LFE
Частота : 48,0 КГц
Битовая глубина : 16 бит
Метод сжатия : С потерями
Размер потока : 372 Мбайт (17%)
Выравнивание : Разделение по промежуткам
Продолжительность промежутка : 42 мс. (1,00 видеокадр)
Время предзагрузки промежутка : 500 мс.

Скриншот c названием фильма

Скриншоты

Скачать

Скачать торрент!

Как скачивать? · Что такое торрент? · Рейтинг и ограничения

Сайт не распространяет и не хранит электронные версии произведений, а лишь предоставляет доступ к создаваемому пользователями каталогу ссылок на торрент-файлы, которые содержат только списки хеш-сумм

[Профиль] [ЛС]
Показать сообщения:    
Ответить на тему

Текущее время: Сегодня 16:41

Часовой пояс: GMT + 4



Вы не можете начинать темы
Вы не можете отвечать на сообщения
Вы не можете редактировать свои сообщения
Вы не можете удалять свои сообщения
Вы не можете голосовать в опросах
Вы не можете прикреплять файлы к сообщениям
Вы не можете скачивать файлы