Бастион / Rampart (Орен Моверман / Oren Moverman) [2011, США, триллер, драма, криминал, BDRip 720p] DVO (Elrom) + Original eng + Sub eng

Ответить на тему
 
Автор Сообщение

user ®

Стаж: 7 лет 7 месяцев

Сообщений: 20008

Пост Пост: #1 от 14-Сен-2013 10:20

[Цитировать]

Бастион / Rampart
Страна: США
Жанр: триллер, драма, криминал
Год выпуска: 2011
Продолжительность: 01:47:54
Перевод: Профессиональный (двухголосый закадровый) |
Cубтитры: английские
Оригинальная аудиодорожка: английский
Режиссер: Орен Моверман
В ролях: Вуди Харрельсон, Нед Битти, Бен Фостер, Энн Хеч, Айс Кьюб, Синтия Никсон, Сигурни Уивер, Робин Райт, Стив Бушеми, Джон Бернтал
Описание: В основу сюжета положен реальный скандал вокруг спецотдела полицейского департамента Лос-Анджелеса, когда более полусотни офицеров предстали перед внутренней администрацией по обвинению в коррупции и превышении должностных полномочий. Офицер, случайно втянутый в это громкое дело, всячески пытается восстановить свое доброе имя и репутацию...

Тип релиза: BDRip 720p (от ThD) | sample
Контейнер: MKV
Видео кодек: x264
Видео: AVC 1280x544 (2.35:1), 23.976 fps, ~5350 Kbps, 0.31 bit/pixel
Аудио #1: Russian AC3 2ch 48kHz 192Kbps | DVO Elrom
Аудио #2: English AC3 6ch 48kHz 640Kbps | Original
Формат субтитров: softsub (SRT)
Главы: есть

MediaInfo | x264

x264

x264 [info]: profile High, level 4.1
x264 [info]: frame I:921 Avg QP:13.06 size:126980
x264 [info]: frame P:32269 Avg QP:16.80 size: 44332
x264 [info]: frame B:122042 Avg QP:17.89 size: 22738
x264 [info]: consecutive B-frames: 2.1% 1.7% 4.5% 22.7% 16.4% 32.4% 8.4% 7.9% 1.5% 0.7% 0.8% 1.0%
General
Complete name : E:\...\Rampart.2011.720p.BluRay.x264.AC3.Rus.Eng-ThD.mkv
Format : Matroska
Format version : Version 4 / Version 2
File size : 4.65 GiB
Duration : 1h 47mn
Overall bit rate : 6 175 Kbps
Movie name : Rampart.2011.720p.BluRay.x264.AC3.Rus.Eng-ThD
Encoded date : UTC 2013-09-09 02:28:04
Writing application : mkvmerge v6.2.0 ('Promised Land') built on Apr 28 2013 12:22:01
Writing library : libebml v1.3.0 + libmatroska v1.4.0
Video
ID : 1
Format : AVC
Format/Info : Advanced Video Codec
Format profile : High@L4.1
Format settings, CABAC : Yes
Format settings, ReFrames : 12 frames
Codec ID : V_MPEG4/ISO/AVC
Duration : 1h 47mn
Bit rate : 5 220 Kbps
Width : 1 280 pixels
Height : 544 pixels
Display aspect ratio : 2.35:1
Frame rate mode : Constant
Frame rate : 23.976 fps
Color space : YUV
Chroma subsampling : 4:2:0
Bit depth : 8 bits
Scan type : Progressive
Bits/(Pixel*Frame) : 0.313
Stream size : 3.93 GiB (85%)
Title : ThD
Writing library : x264 core 120 r2146 bcd41db
Encoding settings : cabac=1 / ref=12 / deblock=1:-3:-3 / analyse=0x3:0x133 / me=umh / subme=11 / psy=1 / psy_rd=1.05:0.00 / mixed_ref=1 / me_range=64 / chroma_me=1 / trellis=2 / 8x8dct=1 / cqm=0 / deadzone=21,11 / fast_pskip=0 / chroma_qp_offset=-2 / threads=18 / sliced_threads=0 / nr=0 / decimate=0 / interlaced=0 / bluray_compat=0 / constrained_intra=0 / bframes=11 / b_pyramid=2 / b_adapt=2 / b_bias=0 / direct=3 / weightb=1 / open_gop=0 / weightp=2 / keyint=250 / keyint_min=23 / scenecut=40 / intra_refresh=0 / rc_lookahead=60 / rc=crf / mbtree=1 / crf=16.0 / qcomp=0.85 / qpmin=0 / qpmax=69 / qpstep=4 / ip_ratio=1.40 / aq=2:0.55
Language : English
Default : No
Forced : No
Audio #1
ID : 2
Format : AC-3
Format/Info : Audio Coding 3
Mode extension : CM (complete main)
Format settings, Endianness : Big
Codec ID : A_AC3
Duration : 1h 47mn
Bit rate mode : Constant
Bit rate : 192 Kbps
Channel(s) : 2 channels
Channel positions : Front: L R
Sampling rate : 48.0 KHz
Bit depth : 16 bits
Compression mode : Lossy
Stream size : 148 MiB (3%)
Title : DVO Elrom
Language : Russian
Default : Yes
Forced : No
Audio #2
ID : 3
Format : AC-3
Format/Info : Audio Coding 3
Mode extension : CM (complete main)
Format settings, Endianness : Big
Codec ID : A_AC3
Duration : 1h 47mn
Bit rate mode : Constant
Bit rate : 640 Kbps
Channel(s) : 6 channels
Channel positions : Front: L C R, Side: L R, LFE
Sampling rate : 48.0 KHz
Bit depth : 16 bits
Compression mode : Lossy
Stream size : 494 MiB (10%)
Title : Original
Language : English
Default : No
Forced : No
Text
ID : 4
Format : UTF-8
Codec ID : S_TEXT/UTF8
Codec ID/Info : UTF-8 Plain Text
Language : English
Default : No
Forced : No
Menu
00:00:00.000 : en:00:00:00.000
00:07:25.904 : en:00:07:25.904
00:17:40.101 : en:00:17:40.101
00:24:45.984 : en:00:24:45.984
00:32:31.616 : en:00:32:31.616
00:42:15.950 : en:00:42:15.950
00:51:46.061 : en:00:51:46.061
01:01:43.158 : en:01:01:43.158
01:08:57.008 : en:01:08:57.008
01:17:03.369 : en:01:17:03.369
01:26:28.266 : en:01:26:28.266
01:39:46.522 : en:01:39:46.522

Скриншоты

source vs ThD


source vs ThD vs [url=http://***/forum/viewtopic.php?t=4037968]AMIABLE[/url]


Скачать

Скачать торрент!

Как скачивать? · Что такое торрент? · Рейтинг и ограничения

Сайт не распространяет и не хранит электронные версии произведений, а лишь предоставляет доступ к создаваемому пользователями каталогу ссылок на торрент-файлы, которые содержат только списки хеш-сумм

[Профиль] [ЛС]
Показать сообщения:    
Ответить на тему

Текущее время: Сегодня 23:48

Часовой пояс: GMT + 4



Вы не можете начинать темы
Вы не можете отвечать на сообщения
Вы не можете редактировать свои сообщения
Вы не можете удалять свои сообщения
Вы не можете голосовать в опросах
Вы не можете прикреплять файлы к сообщениям
Вы не можете скачивать файлы