Болезнь / The Sorrow / A Sierra Nevada Gunfight (Вернон Мортенсен / Vernon E. Mortensen) [2013, США, вестерн, DVB] DVO (НТВ+)

Ответить на тему
 
Автор Сообщение

user ®

Стаж: 8 лет 7 месяцев

Сообщений: 20007

Пост Пост: #1 от 13-Сен-2013 21:40

[Цитировать]

Болезнь
The Sorrow- Страна: США
Жанр: вестерн
Год выпуска: 2013
Продолжительность: 01:27:40Перевод: Профессиональный (двухголосый закадровый) (НТВ+, перевод Ларисы Татарниковой,
текст читают Наталья Казначеева, Александр Воронов).
Cубтитры: нет
Оригинальная аудиодорожка: нет
Режиссер: Вернон Мортенсен / Vernon E. Mortensen
В ролях: Кёрк Харрис / Kirk Harris (Roger Hazzard), Райан Бэлланс / Ryan Ballance (Casper Hazzard), Майкл Мэдсен / Michael Madsen (Sheriff Sawyer), Джон Сэвидж / John Savage (Father Bill)
Описание: Калифорния, 1870-е годы. Роджер с 12-летним сыном Каспером работают на золотом руднике, принадлежащем крупной золотодобывающей компании, в надежде разбогатеть. Вскоре Роджер начинает терять связь с реальностью. Каспер, в свою очередь, сталкивается с множеством опасностей на каждом углу. Он собирает все свои силы, чтобы спасти себя и отца, подросток умудряется бороться с дикими индейцами и бандитами... (анонс канала "Премьера")
Доп. информация: Запись со спутника (телеканал "Премьера").
Информация: http://www.imdb.com/title/tt1879078/
Сэмпл: http://multi-up.com/903037
Качество видео: DVB
Формат видео: MPEG-PS [url=http://***/forum/viewtopic.php?p=58098458#58098458](См. при проблемах с просмотром видео)[/url]
Видео: MPEG Video 2, 720x576@1024x576 (16:9), 25 fps, ~2210 kbps avg, 0.213 bit/pixel
Аудио: 48 kHz, MPEG Audio 2, 2 ch, ~192.00 kbps avg

MediaInfo

Полное имя : H:\My Torrents\[apreder]The_Sorrow(2013)DVB.mpgФормат : MPEG-PSРазмер файла : 1,50 ГбайтПродолжительность : 1 ч. 27 м.Режим общего битрейта : ПеременныйОбщий поток : 2451 Кбит/сек
ВидеоИдентификатор : 224 (0xE0)Формат : MPEG VideoВерсия формата : Version 2Профиль формата : Main@MainПараметр BVOP формата : ДаПараметр матрицы формата : ВыборочнаяПараметр GOP формата : M=3, N=36Продолжительность : 1 ч. 27 м.Вид битрейта : ПеременныйБитрейт : 2210 Кбит/секШирина : 720 пикселейВысота : 576 пикселейСоотношение сторон : 16:9Частота кадров : 25,000 кадров/секСтандарт вещания : PALЦветовое пространство : YUVСубдискретизация насыщенности : 4:2:0Битовая глубина : 8 битТип развёртки : ЧересстрочнаяПорядок развёртки : Верхнее поле первоеМетод сжатия : С потерямиБит/(Пиксели*Кадры) : 0.213TimeCode_FirstFrame : 00:00:00:00TimeCode_Source : Group of pictures headerРазмер потока : 1,35 Гбайт (90%)
АудиоИдентификатор : 192 (0xC0)Формат : MPEG AudioВерсия формата : Version 1Профиль формата : Layer 2Продолжительность : 1 ч. 27 м.Вид битрейта : ПостоянныйБитрейт : 192 Кбит/секКаналы : 2 каналаЧастота : 48,0 КГцМетод сжатия : С потерямиРазмер потока : 120 Мбайт (8%)

Скриншот c названием фильма

Скриншоты


Резервные скриншоты


-967/949√
Скачать

Скачать торрент!

Как скачивать? · Что такое торрент? · Рейтинг и ограничения

Сайт не распространяет и не хранит электронные версии произведений, а лишь предоставляет доступ к создаваемому пользователями каталогу ссылок на торрент-файлы, которые содержат только списки хеш-сумм

[Профиль] [ЛС]
Показать сообщения:    
Ответить на тему

Текущее время: Сегодня 00:57

Часовой пояс: GMT + 4



Вы не можете начинать темы
Вы не можете отвечать на сообщения
Вы не можете редактировать свои сообщения
Вы не можете удалять свои сообщения
Вы не можете голосовать в опросах
Вы не можете прикреплять файлы к сообщениям
Вы не можете скачивать файлы