Дневной свет / Daglicht (Дидерик Ван Ружен / Diederik Van Rooijen) [2013, Нидерланды, триллер, BDRip] VO (Вадим Белов)

Ответить на тему
 
Автор Сообщение

user ®

Стаж: 7 лет 7 месяцев

Сообщений: 20008

Пост Пост: #1 от 13-Сен-2013 02:45

[Цитировать]

Дневной свет / Daglicht
Страна: Нидерланды
Жанр: триллер
Год выпуска: 2013
Продолжительность: 01:54:54
Перевод: Одноголосый закадровый [Вадим Белов]
Cубтитры: нет
Оригинальная аудиодорожка: нет
Режиссер: Дидерик Ван Ружен / Diederik Van Rooijen
В ролях: Дерек де Линт, Федя ван Хюэт, Моник ван де Вен, Анжела Схяйф, Виктор Лёв, Тийс Ромер, Маттео ван дер Грийн, Йап Спийкерс, Майк Реус, Сабина Соэтанто
Описание: Успешный адвокат Ирис узнает, что её мать всю жизнь скрывала от неё один большой секрет. Оказывается, у неё есть старший брат, о существовании которого она даже не подозревала. Рэй, страдающий аутизмом, много лет назад был осужден за жестокое убийство, и теперь находится в судебно-психиатрической клинике. Проникнувшись сочувствием к своему брату, Ирис решает ему помочь, но в поисках истины ей придется столкнуться с такими препятствиями, которые изменят её жизнь навсегда.


Сэмпл: http://multi-up.com/902822
Качество видео: BDRip (Исх. Blu-Ray Remux (1080p))
Формат видео: AVI
Видео: 704x288 (2.44:1), 23.976 fps, XviD build 50 ~770 kbps avg, 0.16 bit/pixel
Аудио: 48 kHz, MPEG Layer 3, 2 ch, ~128.00 kbps avg

MediaInfo

Общее
Полное имя : S:\Фильмы\Дневной свет. 2013. BDRip (AleksSin).avi
Формат : AVI
Формат/Информация : Audio Video Interleave
Размер файла : 746 Мбайт
Продолжительность : 1 ч. 54 м.
Общий поток : 907 Кбит/сек
Программа кодирования : VirtualDubMod 1.5.10.3 | www.virtualdub-fr.org || (build 2550/release)
Библиотека кодирования : VirtualDubMod build 2550/release
Видео
Идентификатор : 0
Формат : MPEG-4 Visual
Профиль формата : Advanced Simple@L5
Параметр BVOP формата : 2
Параметр QPel формата : Нет
Параметр GMC формата : Без точки перехода
Параметр матрицы формата : Default (H.263)
Идентификатор кодека : XVID
Идентификатор кодека/Подсказка : XviD
Продолжительность : 1 ч. 54 м.
Битрейт : 770 Кбит/сек
Ширина : 704 пикс.
Высота : 288 пикс.
Соотношение сторон : 2,40:1
Частота кадров : 23,976 кадр/сек
Цветовое пространство : YUV
Подвыборка цветности : 4:2:0
Битовая глубина : 8 бит
Тип развёртки : Прогрессивная
Метод сжатия : С потерями
Бит/(Пиксели*Кадры) : 0.158
Размер потока : 633 Мбайт (85%)
Библиотека кодирования : XviD 1.2.1 (UTC 2008-12-04)
Аудио
Идентификатор : 1
Формат : MPEG Audio
Версия формата : Version 1
Профиль формата : Layer 3
Идентификатор кодека : 55
Идентификатор кодека/Подсказка : MP3
Продолжительность : 1 ч. 54 м.
Вид битрейта : Постоянный
Битрейт : 128 Кбит/сек
Каналы : 2 канала
Частота : 48,0 КГц
Метод сжатия : С потерями
Размер потока : 105 Мбайт (14%)
Выравнивание : Соединение по промежуткам
Продолжительность промежутка : 42 мс. (1,00 видеокадр)
Время предзагрузки промежутка : 504 ms
Библиотека кодирования : LAME3.99r
Настройки программы : -m s -V 4 -q 2 -lowpass 17 -b 128

Скриншот c названием фильма

Скриншоты

Скачать

Скачать торрент!

Как скачивать? · Что такое торрент? · Рейтинг и ограничения

Сайт не распространяет и не хранит электронные версии произведений, а лишь предоставляет доступ к создаваемому пользователями каталогу ссылок на торрент-файлы, которые содержат только списки хеш-сумм

[Профиль] [ЛС]
Показать сообщения:    
Ответить на тему

Текущее время: Сегодня 23:44

Часовой пояс: GMT + 4



Вы не можете начинать темы
Вы не можете отвечать на сообщения
Вы не можете редактировать свои сообщения
Вы не можете удалять свои сообщения
Вы не можете голосовать в опросах
Вы не можете прикреплять файлы к сообщениям
Вы не можете скачивать файлы