Урод (Роман Качанов) [1993, мюзикл, комедия, VHSRip]

Ответить на тему
 
Автор Сообщение

user ®

Стаж: 7 лет 7 месяцев

Сообщений: 20008

Пост Пост: #1 от 12-Сен-2013 20:25

[Цитировать]

Урод
Жанр: мюзикл, комедия
Год выпуска: 1993
Продолжительность: 01:26:19
Режиссёр: Роман Качанов
В ролях: Геннадий Бортников
Сергей Галкин
Сергей Лебедев
Константин Марков
Вячеслав Невинный мл.
Джоанна Стингрей
Никита Высоцкий
Алексей Золотницкий
Борис Шитиков
Ирина Гордина
Описание: В одном из московских роддомов роженица принесла необыкновенного младенца, заговорившего с первых минут своего появления. Тридцатилетний с виду парень научился писать и читать за два дня. Прочитав несколько классических детективов, герой начал жить по писанным правилам…
Доп. информация: Оцифровка VHS (личный архив) и получение VHSRip alenavova
Эксклюзив для ***. При размещении данного релиза на других сайтах ссылка на автора alenavova обязательна.

Релиз
Качество видео: VHSRip
Формат видео: AVI
Видео: 576x400 (1.44:1), 25 fps, XviD build 47 ~1069 kbps avg, 0.19 bit/pixel
Аудио: 48 kHz, MPEG Layer 3, 2 ch, ~128.00 kbps avg

MediaInfo

Урод [by alenavova].avi
Format : AVI
Format/Info : Audio Video Interleave
File size : 745 MiB
Duration : 1h 26mn
Overall bit rate : 1 207 Kbps
Movie name : Урод [by alenavova]
Director : Rip by alenavova
Writing application : FairUse Wizard - http://fairusewizard.com
Copyright : Edich2
Comment : ***
Video
ID : 0
Format : MPEG-4 Visual
Format profile : Advanced Simple@L5
Format settings, BVOP : 1
Format settings, QPel : No
Format settings, GMC : No warppoints
Format settings, Matrix : Default (H.263)
Codec ID : XVID
Codec ID/Hint : XviD
Duration : 1h 26mn
Bit rate : 1 069 Kbps
Width : 576 pixels
Height : 400 pixels
Display aspect ratio : 1.440
Frame rate : 25.000 fps
Color space : YUV
Chroma subsampling : 4:2:0
Bit depth : 8 bits
Scan type : Progressive
Compression mode : Lossy
Bits/(Pixel*Frame) : 0.186
Stream size : 660 MiB (89%)
Writing library : XviD 1.2.0.dev47 (UTC 2006-11-01)
Audio
ID : 1
Format : MPEG Audio
Format version : Version 1
Format profile : Layer 3
Mode : Joint stereo
Mode extension : MS Stereo
Codec ID : 55
Codec ID/Hint : MP3
Duration : 1h 26mn
Bit rate mode : Constant
Bit rate : 128 Kbps
Channel(s) : 2 channels
Sampling rate : 48.0 KHz
Compression mode : Lossy
Stream size : 79.0 MiB (11%)
Alignment : Aligned on interleaves
Interleave, duration : 40 ms (1.00 video frame)
Interleave, preload duration : 504 ms
Writing library : LAME3.97ЄЄЄЄЄЄЄЄЄЄЄЄ

Скриншоты


Скачать

Скачать торрент!

Как скачивать? · Что такое торрент? · Рейтинг и ограничения

Сайт не распространяет и не хранит электронные версии произведений, а лишь предоставляет доступ к создаваемому пользователями каталогу ссылок на торрент-файлы, которые содержат только списки хеш-сумм

[Профиль] [ЛС]
Показать сообщения:    
Ответить на тему

Текущее время: Сегодня 04:22

Часовой пояс: GMT + 4



Вы не можете начинать темы
Вы не можете отвечать на сообщения
Вы не можете редактировать свои сообщения
Вы не можете удалять свои сообщения
Вы не можете голосовать в опросах
Вы не можете прикреплять файлы к сообщениям
Вы не можете скачивать файлы