Стартрек: Возмездие / Star Trek Into Darkness (Джей Джей Абрамс / J.J. Abrams) [2013, США, Фантастика, боевик, приключения, BDRip 720p] Dub + Sub Rus + Original Eng

Ответить на тему
 
Автор Сообщение

user ®

Стаж: 7 лет 7 месяцев

Сообщений: 20008

Пост Пост: #1 от 12-Сен-2013 07:45

[Цитировать]

-Стартрек: Возмездие / Star Trek Into Darkness-Страна: США
Студия: Paramount Pictures
Жанр: Фантастика, боевик, приключения
Год выпуска: 2013
Продолжительность: 02:12:06-Перевод: Профессиональный (дублированный) Blu-ray CEE
Перевод: Профессиональный (дублированный) Пиратский
Перевод 2: Одноголосый закадровый | Andi
Cубтитры: русские (форсед и полные), английские (х3)
Оригинальная аудиодорожка: английский-Режиссер: Джей Джей Абрамс / J.J. Abrams
В ролях: Крис Пайн, Закари Куинто, Бенедикт Камбербэтч, Саймон Пегг, Карл Урбан, Зои Салдана, Элис Ив, Джон Чо, Антон Ельчин, Питер Уэллер-Описание: Вернувшись на Землю, команда корабля «Энтерпрайз» обнаруживает, что деятельность и принципы их организации подорваны изнутри. Флот скован необъяснимым ужасом и бездействует, пока мир все глубже погружается в бездну. Капитан Кирк берет на себя руководство операцией по поимке злодея, ответственного за этот хаос и способного уничтожить все человечество. В запутанной игре не на жизнь, а на смерть, любовь и дружба будут принесены в жертву ради единственного, что осталось у Кирка — его команды.-Сэмпл: http://yadi.sk/d/w8BHlrhB94qpH-Тип релиза: BDRip 720p
Контейнер: MKV
Видео: MPEG-4 AVC Video / 9 009 Kbps / 1280x534p / 23.976 fps / High Profile 4.1
Аудио 1: Russian / AC3 / 48 kHz / 5.1 / 640 Kbps / 16 bit |Дубляж, Blu-ray CEE|
Аудио 2: Russian / AC3 / 48 kHz / 5.1 / 448 Kbps / 16 bit |Дубляж, Пиратский|
Аудио 3: English DTS Audio 5.1 / 48 kHz / 1509 kbps / 24-bit
Аудио 4: Russian DTS Audio 5.1 / 48 kHz / 1509 kbps / 16-bit | Andi [
Формат субтитров: softsub (SRT)

Видеоряд от TayTO

MOViE iNFOGENRE.........: Action, Adventure, Sci-FiiMDB RATiNG...: 8.1/10 from 152,390 usersLiNK..........: http://www.imdb.com/title/tt1408101
RELEASE iNFORELEASE NAME..: Star Trek Into Darkness 2013 720p BluRay DD5.1 x264-TayTOENCODED DATE..: UTC 2013-08-27 17:40:48RELEASE SiZE..: 9.08 GiBRUNTiME.......: 2h 12mnViDEO CODEC...: x264, High@L4.1FRAMERATE.....: 23.976 fpsBiTRATE.......: 9 009 KbpsRESOLUTiON....: 1280x534AUDiO.........: English AC3 5.1@640 KbpsCHAPTERS......: YesSUBTiTLES.....: English,French,Spanish,PortugueseSOURCE........: Star Trek Into Darkness 2013 1080p Blu-ray AVC TrueHD 7.1-TTG (Thx BoDoi!)CONTACT.......: TayTO.Group@gmail.comEncoder.......: v0danh@TayTO
x264 iNFOx264 [info]: frame I:1480 Avg QP:13.99 size:145312x264 [info]: frame P:49275 Avg QP:15.61 size: 74442x264 [info]: frame B:139277 Avg QP:18.05 size: 37583x264 [info]: consecutive B-frames: 5.3% 6.9% 10.3% 17.9% 15.3% 32.6% 7.8% 4.0%
encoded 190032 frames, 4.39 fps, 9202.93 kb/sComparison Screenshots
Source - TayTO - CROSSBOW




MI

General
Complete name                    : X:\  -= Фильмы =-\Стартрек. Возмездие (2013. Star Trek Into Darkness) 720p.mkv
Format                           : Matroska
File size                        : 10.9 GiB
Duration                         : 2h 12mn
Overall bit rate                 : 11.8 Mbps
Movie name                       : Release for
Encoded date                     : UTC 2013-09-10 21:11:17
Writing application              : mkvmerge v4.9.1 ('Ich will') сборка от Jul 11 2011 23:53:15
Writing library                  : libebml v1.2.1 + libmatroska v1.1.1
Video
ID                               : 1
Format                           : AVC
Format/Info                      : Advanced Video Codec
Format profile                   : High@L4.1
Format settings, CABAC           : Yes
Format settings, ReFrames        : 12 frames
Muxing mode                      : Container profile=Unknown@4.1
Codec ID                         : V_MPEG4/ISO/AVC
Duration                         : 2h 12mn
Bit rate                         : 8 971 Kbps
Width                            : 1 280 pixels
Height                           : 534 pixels
Display aspect ratio             : 2.35:1
Frame rate                       : 23.976 fps
Color space                      : YUV
Chroma subsampling               : 4:2:0
Bit depth                        : 8 bits
Scan type                        : Progressive
Bits/(Pixel*Frame)               : 0.547
Stream size                      : 8.28 GiB (76%)
Title                            : Star Trek Into Darkness 2013 720p BluRay DD5.1 x264-TayTO
Writing library                  : x264 core 138 r2358 9e941d1
Encoding settings                : cabac=1 / ref=12 / deblock=1:-3:-3 / analyse=0x3:0x133 / me=tesa / subme=11 / psy=1 / psy_rd=1.15:0.00 / mixed_ref=1 / me_range=16 / chroma_me=1 / trellis=2 / 8x8dct=1 / cqm=0 / deadzone=21,11 / fast_pskip=0 / chroma_qp_offset=-2 / threads=12 / lookahead_threads=2 / sliced_threads=0 / nr=0 / decimate=1 / interlaced=0 / bluray_compat=0 / constrained_intra=0 / bframes=7 / b_pyramid=2 / b_adapt=2 / b_bias=0 / direct=3 / weightb=1 / open_gop=0 / weightp=2 / keyint=250 / keyint_min=23 / scenecut=40 / intra_refresh=0 / rc=crf / mbtree=0 / crf=15.8 / qcomp=0.75 / qpmin=0 / qpmax=69 / qpstep=4 / ip_ratio=1.40 / pb_ratio=1.30 / aq=1:0.65
Language                         : English
Matrix coefficients              : BT.709-5, BT.1361, IEC 61966-2-4 709, SMPTE RP177
Audio #1
ID                               : 2
Format                           : AC-3
Format/Info                      : Audio Coding 3
Mode extension                   : CM (complete main)
Codec ID                         : A_AC3
Duration                         : 2h 12mn
Bit rate mode                    : Constant
Bit rate                         : 640 Kbps
Channel(s)                       : 6 channels
Channel positions                : Front: L C R, Side: L R, LFE
Sampling rate                    : 48.0 KHz
Bit depth                        : 16 bits
Stream size                      : 605 MiB (5%)
Title                            : Дубляж [Blu-ray]
Language                         : Russian
Audio #2
ID                               : 3
Format                           : AC-3
Format/Info                      : Audio Coding 3
Mode extension                   : CM (complete main)
Codec ID                         : A_AC3
Duration                         : 2h 12mn
Bit rate mode                    : Constant
Bit rate                         : 448 Kbps
Channel(s)                       : 6 channels
Channel positions                : Front: L C R, Side: L R, LFE
Sampling rate                    : 48.0 KHz
Bit depth                        : 16 bits
Stream size                      : 423 MiB (4%)
Title                            : Дубляж [Пиратский]
Language                         : Russian
Audio #3
ID                               : 4
Format                           : DTS
Format/Info                      : Digital Theater Systems
Codec ID                         : A_DTS
Duration                         : 2h 12mn
Bit rate mode                    : Constant
Bit rate                         : 1 510 Kbps
Channel(s)                       : 6 channels
Channel positions                : Front: L C R, Side: L R, LFE
Sampling rate                    : 48.0 KHz
Bit depth                        : 24 bits
Stream size                      : 1.39 GiB (13%)
Language                         : English
Text #1
ID                               : 5
Format                           : UTF-8
Codec ID                         : S_TEXT/UTF8
Codec ID/Info                    : UTF-8 Plain Text
Title                            : Forced
Language                         : Russian
Text #2
ID                               : 6
Format                           : UTF-8
Codec ID                         : S_TEXT/UTF8
Codec ID/Info                    : UTF-8 Plain Text
Title                            : Full
Language                         : Russian
Text #3
ID                               : 7
Format                           : UTF-8
Codec ID                         : S_TEXT/UTF8
Codec ID/Info                    : UTF-8 Plain Text
Language                         : English
Text #4
ID                               : 8
Format                           : UTF-8
Codec ID                         : S_TEXT/UTF8
Codec ID/Info                    : UTF-8 Plain Text
Title                            : SDH
Language                         : English
Text #5
ID                               : 9
Format                           : UTF-8
Codec ID                         : S_TEXT/UTF8
Codec ID/Info                    : UTF-8 Plain Text
Title                            : SDH-COLORED
Language                         : English
Text #6
ID                               : 10
Format                           : UTF-8
Codec ID                         : S_TEXT/UTF8
Codec ID/Info                    : UTF-8 Plain Text
Language                         : Ukrainian
Menu
00:00:00.000                     : en:00:00:00.000
00:10:20.370                     : en:00:10:20.370
00:19:21.494                     : en:00:19:21.494
00:30:03.969                     : en:00:30:03.969
00:40:09.115                     : en:00:40:09.115
00:46:05.262                     : en:00:46:05.262
00:56:38.228                     : en:00:56:38.228
01:06:35.783                     : en:01:06:35.783
01:12:55.663                     : en:01:12:55.663
01:22:45.752                     : en:01:22:45.752
01:30:54.741                     : en:01:30:54.741
01:38:36.369                     : en:01:38:36.369
01:47:09.548                     : en:01:47:09.548
01:54:17.142                     : en:01:54:17.142
01:59:20.653                     : en:01:59:20.653
02:03:18.308                     : en:02:03:18.308

Скриншоты


Скачать

Скачать торрент!

Как скачивать? · Что такое торрент? · Рейтинг и ограничения

Сайт не распространяет и не хранит электронные версии произведений, а лишь предоставляет доступ к создаваемому пользователями каталогу ссылок на торрент-файлы, которые содержат только списки хеш-сумм

[Профиль] [ЛС]
Показать сообщения:    
Ответить на тему

Текущее время: Сегодня 19:57

Часовой пояс: GMT + 4



Вы не можете начинать темы
Вы не можете отвечать на сообщения
Вы не можете редактировать свои сообщения
Вы не можете удалять свои сообщения
Вы не можете голосовать в опросах
Вы не можете прикреплять файлы к сообщениям
Вы не можете скачивать файлы