Король / King (Прабу Соломон / Prabu Solomon) [2002, Индия, Драма, DVDRip] Rus Sub

Ответить на тему
 
Автор Сообщение

user ®

Стаж: 12 лет

Сообщений: 15124

Пост Пост: #1 от 12-Сен-2013 04:35

[Цитировать]

Король / King
-Страна: Индия
Жанр: Драма
Год выпуска: 2002
Продолжительность: 02:50:09--Язык: Тамили
Перевод: Субтитры
Cубтитры: Русские
Перевод и редакция: Elain--Режиссер: Прабу Соломон / Prabu Solomon-В ролях: Викрам / Vikram, Нассер / Nasser, Джанагарадж / Janagaraj, Снеха / Sneha--Описание: Сюжет закручен вокруг двух главных героев - отца (Нассер) и сына (Викрам).
Раджа, выпускник МВА и Магистр Чёрной Магии, живёт в Гонконге вместе со своим отцом Шанмугамом, успешным бизнесменом. Эти двое скорее друзья, чем отец и сын. Однажды они попадают в автомобильную аварию. В больнице Шанмугаму делают анализ крови и обнаруживают у него редкое заболевание, рассеянный склероз. В соответствии с поставленным диагнозом ему остаётся только 60 дней нормальной жизни. После этого начнутся проблемы со зрением, нервные клетки будут разрушаться, и наступит смерть. Доктор Чину, близкий друг семьи, советует Радже не рассказывать отцу о болезни, а постараться сделать его последние 60 дней жизни счастливыми. Подавленный и разбитый, Раджа даёт обещание и приступает к выполнению.
Как в любом индийском фильме (за что мы их и любим!), сюжет не так прост, как кажется на первый взгляд. В фильме будет и любовная линия, и комические сценки, и... открытый финал. Но я вам об этом не говорила. (с) Elain--Качество видео: DVDRip
Формат видео: AVI-Видео: XviD, 640x272, 23.976 fps, 1027 Kbps
Аудио: MP3, 44.1 КHz, 2 сh, 128 Kbps
Формат субтитров: hardsub (неотключаемые)--Релиз:
Перевод, редакция: Elain (спасибо!)
Рип, сведение аудио: soso4eg-- -
-

Скриншот с названием:


-

Скриншоты:


-

MI

Общее
Полное имя : C:\INDIYA\[Релизы]\Korol.2002.Tamil.DVDRip.XviD.BwT-soso4eg.avi
Формат : AVI
Формат/Информация : Audio Video Interleave
Размер файла : 1,38 Гбайт
Продолжительность : 2 ч. 50 м.
Общий поток : 1165 Кбит/сек
Название фильма : King.2002.Tamil.DVDRip.XviD.BwT-soso4eg
Программа кодирования : VirtualDubMod 1.5.10.3 | www.virtualdub-fr.org || (build 2550/release)
Видео
Идентификатор : 0
Формат : MPEG-4 Visual
Профиль формата : Advanced Simple@L5
Параметр BVOP формата : 1
Параметр QPel формата : Нет
Параметр GMC формата : Без точки перехода
Параметр матрицы формата : Default (H.263)
Идентификатор кодека : XVID
Идентификатор кодека/Подсказка : XviD
Продолжительность : 2 ч. 50 м.
Битрейт : 1027 Кбит/сек
Ширина : 640 пикселей
Высота : 272 пикселя
Соотношение сторон : 2,35:1
Частота кадров : 23,976 кадра/сек
Цветовое пространство : YUV
Субдискретизация насыщенности : 4:2:0
Битовая глубина : 8 бит
Тип развёртки : Прогрессивная
Метод сжатия : С потерями
Бит/(Пиксели*Кадры) : 0.246
Размер потока : 1,22 Гбайт (88%)
Библиотека кодирования : XviD 1.2.1 (UTC 2008-12-04)
Аудио
Идентификатор : 1
Формат : MPEG Audio
Версия формата : Version 1
Профиль формата : Layer 3
Режим : Joint stereo
Идентификатор кодека : 55
Идентификатор кодека/Подсказка : MP3
Продолжительность : 2 ч. 50 м.
Вид битрейта : Постоянный
Битрейт : 128 Кбит/сек
Каналы : 2 канала
Частота : 44,1 КГц
Метод сжатия : С потерями
Размер потока : 156 Мбайт (11%)
Выравнивание : Разделение по промежуткам
Продолжительность промежутка : 42 мс. (1,00 видеокадр)
Время предзагрузки промежутка : 500 мс.

-
-
Скачать

Скачать торрент! Король / King (Прабу Соломон / Prabu Solomon) [2002, Индия, Драма, DVDRip] Rus Sub

Как скачивать? · Что такое торрент? · Рейтинг и ограничения

Сайт не распространяет и не хранит электронные версии произведений, а лишь предоставляет доступ к создаваемому пользователями каталогу ссылок на торрент-файлы, которые содержат только списки хеш-сумм

[Профиль] [ЛС]
Показать сообщения:    
Ответить на тему

Текущее время: Сегодня 21:09

Часовой пояс: GMT + 4



Вы не можете начинать темы
Вы не можете отвечать на сообщения
Вы не можете редактировать свои сообщения
Вы не можете удалять свои сообщения
Вы не можете голосовать в опросах
Вы не можете прикреплять файлы к сообщениям
Вы не можете скачивать файлы