Эпоха алчности / Assault on Wall Street / Bailout: The Age of Greed (Уве Болл / Uwe Boll) [2013, Канада, триллер, драма, BDRemux 1080p] VO (den904) +2x Sub (Rus, Eng)

Ответить на тему
 
Автор Сообщение

user ®

Стаж: 7 лет 7 месяцев

Сообщений: 20008

Пост Пост: #1 от 11-Сен-2013 06:50

[Цитировать]

Эпоха алчности / Assault on Wall Street / Bailout: The Age of Greed- Страна: Канада
Жанр: триллер, драма
Год выпуска: 2013
Продолжительность: 01:38:55
Перевод: одноголосый закадровый den904
Cубтитры: русские, английские
Режиссер: Уве Болл / Uwe Boll
В ролях: Доминик Пёрселл, Эрин Карплак, Джон Хёрд, Эдвард Ферлонг, Эрик Робертс, Кит Дэвид, Майкл Паре, Локлин Манро, Тайрон Лейтсо, Майк Допуд
Описание: Это история обычного, среднестатистического жителя Нью-Йорка, с хорошей работой и счастливой семьей. После того, как наступает экономический кризис, он лишается работы и будучи в отчаянии он берет оружие и отправляется мстить за свою испорченную жизнь.
-Тип релиза: BDRemux
Контейнер: MKV
Видео: MPEG-4 AVC, 1920x1080, 16:9, 20600 kbps, 23,976 fps
Аудио:
1. Rus - AC3, 384 kbps, 48000Hz, 6 ch (den904)
2. Eng - AC3, 448 kbps, 48000Hz, 6 ch
Формат субтитров: softsub (SRT)
Сэмпл: 241Mb

MediaInfo

General
Format : Matroska
Format version : Version 2
File size : 15.1 GiB
Duration : 1h 38mn
Overall bit rate mode : Variable
Overall bit rate : 21.8 Mbps
Movie name : Assault on Wall Street (2013) Blu-ray Remux от Neofilm
Encoded date : UTC 2013-09-10 12:24:13
Writing application : mkvmerge v3.3.0 ('Language') built on Mar 24 2010 14:59:24
Writing library : libebml v0.8.0 + libmatroska v0.9.0
Video
ID : 1
Format : AVC
Format/Info : Advanced Video Codec
Format profile : High@L4.1
Format settings, CABAC : Yes
Format settings, ReFrames : 4 frames
Codec ID : V_MPEG4/ISO/AVC
Duration : 1h 38mn
Bit rate mode : Variable
Bit rate : 20.6 Mbps
Maximum bit rate : 35.0 Mbps
Width : 1 920 pixels
Height : 1 080 pixels
Display aspect ratio : 16:9
Frame rate mode : Constant
Frame rate : 23.976 fps
Standard : NTSC
Color space : YUV
Chroma subsampling : 4:2:0
Bit depth : 8 bits
Scan type : Progressive
Bits/(Pixel*Frame) : 0.414
Stream size : 14.2 GiB (94%)
Title : Assault on Wall Street (2013)
Language : English
Default : No
Forced : No
Color primaries : BT.709
Transfer characteristics : BT.709
Matrix coefficients : BT.709
Audio #1
ID : 2
Format : AC-3
Format/Info : Audio Coding 3
Mode extension : CM (complete main)
Format settings, Endianness : Big
Codec ID : A_AC3
Duration : 1h 38mn
Bit rate mode : Constant
Bit rate : 384 Kbps
Channel(s) : 6 channels
Channel positions : Front: L C R, Side: L R, LFE
Sampling rate : 48.0 KHz
Bit depth : 16 bits
Compression mode : Lossy
Stream size : 272 MiB (2%)
Title : den904
Language : Russian
Default : No
Forced : No
Audio #2
ID : 3
Format : AC-3
Format/Info : Audio Coding 3
Mode extension : CM (complete main)
Format settings, Endianness : Big
Codec ID : A_AC3
Duration : 1h 38mn
Bit rate mode : Constant
Bit rate : 448 Kbps
Channel(s) : 6 channels
Channel positions : Front: L C R, Side: L R, LFE
Sampling rate : 48.0 KHz
Bit depth : 16 bits
Compression mode : Lossy
Stream size : 317 MiB (2%)
Language : English
Default : No
Forced : No
Text #1
ID : 4
Format : UTF-8
Codec ID : S_TEXT/UTF8
Codec ID/Info : UTF-8 Plain Text
Language : Russian
Default : No
Forced : No
Text #2
ID : 5
Format : UTF-8
Codec ID : S_TEXT/UTF8
Codec ID/Info : UTF-8 Plain Text
Language : English
Default : No
Forced : No
Menu
00:00:00.000 : en:00:00:00.000
00:07:42.629 : en:00:07:42.629
00:12:35.546 : en:00:12:35.546
00:19:09.231 : en:00:19:09.231
00:25:09.842 : en:00:25:09.842
00:32:47.048 : en:00:32:47.048
00:38:35.438 : en:00:38:35.438
00:44:55.484 : en:00:44:55.484
00:51:40.639 : en:00:51:40.639
00:58:36.054 : en:00:58:36.054
01:04:29.032 : en:01:04:29.032
01:12:43.859 : en:01:12:43.859
01:17:41.699 : en:01:17:41.699
01:24:58.802 : en:01:24:58.802
01:29:15.892 : en:01:29:15.892
01:36:39.627 : en:01:36:39.627

Скриншоты



Скачать

Скачать торрент!

Как скачивать? · Что такое торрент? · Рейтинг и ограничения

Сайт не распространяет и не хранит электронные версии произведений, а лишь предоставляет доступ к создаваемому пользователями каталогу ссылок на торрент-файлы, которые содержат только списки хеш-сумм

[Профиль] [ЛС]
Показать сообщения:    
Ответить на тему

Текущее время: Сегодня 10:48

Часовой пояс: GMT + 4



Вы не можете начинать темы
Вы не можете отвечать на сообщения
Вы не можете редактировать свои сообщения
Вы не можете удалять свои сообщения
Вы не можете голосовать в опросах
Вы не можете прикреплять файлы к сообщениям
Вы не можете скачивать файлы