Возвращение героя / The Last Stand (Ким Чжи Ун / Kim Ji Woon) [2013, США, боевик, триллер, криминал, BDRip 720p] [US transfer] Dub + AVO (Гаврилов) + AVO (Горчаков) + VO (Чадов) + Original (Eng) + Sub (Rus, Eng)

Ответить на тему
 
Автор Сообщение

user ®

Стаж: 7 лет 7 месяцев

Сообщений: 20008

Пост Пост: #1 от 11-Сен-2013 03:40

[Цитировать]

Возвращение героя / The Last Stand
Страна: США
Студия: Di Bonaventura Pictures
Жанр: боевик, триллер, криминал
Год выпуска: 2013
Продолжительность: 01:47:03
Перевод 1: Профессиональный (дублированный) [Blu-ray Rus]
Перевод 2: Авторский (одноголосый закадровый) [А. Гаврилов]
Перевод 3: Авторский (одноголосый закадровый) [В. Горчаков]
Перевод 4: Одноголосый закадровый [М. Чадов] Цензурная версия
Перевод 5: Одноголосый закадровый [М. Чадов] Нецензурная версия
Оригинальная аудиодорожка: английская
Cубтитры: русские (Forced, Full), английские (Full, SDH, SDH Colored)
Режиссер: Ким Чжи Ун / Kim Ji Woon
В ролях: Арнольд Шварценеггер, Джейми Александр, Форест Уитакер, Джонни Ноксвилл, Родриго Санторо, Луис Гузман, Эдуардо Норьега, Петер Стормаре, Зак Гилфорд, Генезис Родригез, Сонни Лэндэм, Гарри Дин Стэнтон, Джон Патрик Амедори, Дэниэл Хенни, Титос Менчаса, Ричард Диллард, Мэтью Грир, Крис Браунинг, Кристиана Люкас, Рио Александр
Описание: Опасная и жестокая банда наркоторговцев сбегает из-под конвоя ФБР. Прихватив заложника, они мчатся к мексиканской границе на бронированной, оснащенной первоклассным вооружением машине. У них на пути стоит лишь тихий городок, за порядком в котором следит шериф Оуенс. Когда-то он был одним из лучших полицейских Лос-Анджелеса, теперь он вернулся.

Релиз: fanatus
Качество видео: BDRip 720p
Исходник: THE_LAST_STAND_US_REMUX_HDCLUB
Контейнер: MKV
Видео: MPEG-4 AVC, 4600 kbps , 1280x534 (2.40:1), 23.976 fps, 0.281 bit/pixel
Аудио 1: русский (AC3, 6 ch, 48 kHz, 640 kbps) Dub (Blu-ray Rus)
Аудио 2: русский (AC3, 6 ch, 48 kHz, 640 kbps) AVO (Gavrilov)
Аудио 3: русский (AC3, 6 ch, 48 kHz, 640 kbps) AVO (Gorchakov)
Аудио 4: русский (AC3, 6 ch, 48 kHz, 640 kbps) VO (Chadov) Cenzurnaja versija
Аудио 5: русский (AC3, 6 ch, 48 kHz, 640 kbps) VO (Chadov) Necenzurnaja versija
Аудио 6: английский (AC3, 6 ch, 48 kHz, 640 kbps) Original
Формат субтитров: softsub (SRT)
Главы: есть

MediaInfo

General
Unique ID : 204148960486275158818043693410456146517 (0x9995A8DC4E5CEDACB69D6CF5888B9255)
Complete name : E:\The Last Stand.2013.x264.BDRip.720p.fanatus.mkv
Format : Matroska
Format version : Version 2
File size : 6.32 GiB
Duration : 1h 47mn
Overall bit rate : 8 435 Kbps
Movie name : The Last Stand (2013) - fanatus
Encoded date : UTC 2013-09-02 14:39:53
Writing application : mkvmerge v3.4.0 ('Rapunzel') сборка от May 15 2010 09:38:20
Writing library : libebml v0.8.0 + libmatroska v0.9.0
Video
ID : 1
Format : AVC
Format/Info : Advanced Video Codec
Format profile : High@L4.1
Format settings, CABAC : Yes
Format settings, ReFrames : 10 frames
Codec ID : V_MPEG4/ISO/AVC
Duration : 1h 47mn
Bit rate : 4 600 Kbps
Width : 1 280 pixels
Height : 534 pixels
Display aspect ratio : 2.40:1
Frame rate : 23.976 fps
Color space : YUV
Chroma subsampling : 4:2:0
Bit depth : 8 bits
Scan type : Progressive
Bits/(Pixel*Frame) : 0.281
Stream size : 3.32 GiB (52%)
Title : The Last Stand (2013)
Writing library : x264 core 132 r2323+704+51 d571b1c tMod [8-bit@all X86]
Encoding settings : cabac=1 / ref=10 / deblock=1:-3:-3 / analyse=0x3:0x113 / me=tesa / subme=11 / psy=1 / fade_compensate=0.00 / psy_rd=1.02:0.00 / mixed_ref=1 / me_range=48 / chroma_me=1 / trellis=2 / 8x8dct=1 / cqm=0 / deadzone=21,11 / fast_pskip=0 / chroma_qp_offset=-2 / threads=12 / lookahead_threads=3 / sliced_threads=0 / nr=0 / decimate=0 / interlaced=0 / bluray_compat=0 / constrained_intra=0 / fgo=0 / bframes=10 / b_pyramid=2 / b_adapt=2 / b_bias=0 / direct=3 / weightb=1 / open_gop=0 / weightp=2 / keyint=240 / keyint_min=23 / scenecut=40 / intra_refresh=0 / rc_lookahead=240 / rc=2pass / mbtree=0 / bitrate=4600 / ratetol=1.0 / qcomp=0.80 / qpmin=0 / qpmax=69 / qpstep=4 / cplxblur=20.0 / qblur=0.5 / vbv_maxrate=50000 / vbv_bufsize=62500 / nal_hrd=none / ip_ratio=1.40 / pb_ratio=1.30 / aq=4:0.90 / aq-sensitivity=10.00 / aq-factor=1.00:1.00:1.00 / aq2=0 / aq3=0
Language : English
Default : Yes
Forced : No
Audio #1
ID : 2
Format : AC-3
Format/Info : Audio Coding 3
Mode extension : CM (complete main)
Format settings, Endianness : Big
Codec ID : A_AC3
Duration : 1h 47mn
Bit rate mode : Constant
Bit rate : 640 Kbps
Channel(s) : 6 channels
Channel positions : Front: L C R, Side: L R, LFE
Sampling rate : 48.0 KHz
Bit depth : 16 bits
Compression mode : Lossy
Stream size : 491 MiB (8%)
Title : Dub (Blu-ray)
Language : Russian
Default : Yes
Forced : No
Audio #2
ID : 3
Format : AC-3
Format/Info : Audio Coding 3
Mode extension : CM (complete main)
Format settings, Endianness : Big
Codec ID : A_AC3
Duration : 1h 47mn
Bit rate mode : Constant
Bit rate : 640 Kbps
Channel(s) : 6 channels
Channel positions : Front: L C R, Side: L R, LFE
Sampling rate : 48.0 KHz
Bit depth : 16 bits
Compression mode : Lossy
Stream size : 491 MiB (8%)
Title : AVO (Gavrilov)
Language : Russian
Default : No
Forced : No
Audio #3
ID : 4
Format : AC-3
Format/Info : Audio Coding 3
Mode extension : CM (complete main)
Format settings, Endianness : Big
Codec ID : A_AC3
Duration : 1h 47mn
Bit rate mode : Constant
Bit rate : 640 Kbps
Channel(s) : 6 channels
Channel positions : Front: L C R, Side: L R, LFE
Sampling rate : 48.0 KHz
Bit depth : 16 bits
Compression mode : Lossy
Stream size : 491 MiB (8%)
Title : AVO (Gorchakov)
Language : Russian
Default : No
Forced : No
Audio #4
ID : 5
Format : AC-3
Format/Info : Audio Coding 3
Mode extension : CM (complete main)
Format settings, Endianness : Big
Codec ID : A_AC3
Duration : 1h 47mn
Bit rate mode : Constant
Bit rate : 640 Kbps
Channel(s) : 6 channels
Channel positions : Front: L C R, Side: L R, LFE
Sampling rate : 48.0 KHz
Bit depth : 16 bits
Compression mode : Lossy
Stream size : 491 MiB (8%)
Title : VO (Chadov) Cenzurnaja versija
Language : Russian
Default : No
Forced : No
Audio #5
ID : 6
Format : AC-3
Format/Info : Audio Coding 3
Mode extension : CM (complete main)
Format settings, Endianness : Big
Codec ID : A_AC3
Duration : 1h 47mn
Bit rate mode : Constant
Bit rate : 640 Kbps
Channel(s) : 6 channels
Channel positions : Front: L C R, Side: L R, LFE
Sampling rate : 48.0 KHz
Bit depth : 16 bits
Compression mode : Lossy
Stream size : 491 MiB (8%)
Title : VO (Chadov) Necenzurnaja versija
Language : Russian
Default : No
Forced : No
Audio #6
ID : 7
Format : AC-3
Format/Info : Audio Coding 3
Mode extension : CM (complete main)
Format settings, Endianness : Big
Codec ID : A_AC3
Duration : 1h 47mn
Bit rate mode : Constant
Bit rate : 640 Kbps
Channel(s) : 6 channels
Channel positions : Front: L C R, Side: L R, LFE
Sampling rate : 48.0 KHz
Bit depth : 16 bits
Compression mode : Lossy
Stream size : 491 MiB (8%)
Title : Original
Language : English
Default : No
Forced : No
Text #1
ID : 8
Format : UTF-8
Codec ID : S_TEXT/UTF8
Codec ID/Info : UTF-8 Plain Text
Title : Forced
Language : Russian
Default : Yes
Forced : Yes
Text #2
ID : 9
Format : UTF-8
Codec ID : S_TEXT/UTF8
Codec ID/Info : UTF-8 Plain Text
Title : Full
Language : Russian
Default : No
Forced : No
Text #3
ID : 10
Format : UTF-8
Codec ID : S_TEXT/UTF8
Codec ID/Info : UTF-8 Plain Text
Title : Full
Language : English
Default : No
Forced : No
Text #4
ID : 11
Format : UTF-8
Codec ID : S_TEXT/UTF8
Codec ID/Info : UTF-8 Plain Text
Title : SDH
Language : English
Default : No
Forced : No
Text #5
ID : 12
Format : UTF-8
Codec ID : S_TEXT/UTF8
Codec ID/Info : UTF-8 Plain Text
Title : SDH Colored
Language : English
Default : No
Forced : No
Menu
00:00:00.000 : en:Chapter 01
00:03:57.028 : en:Chapter 02
00:13:09.955 : en:Chapter 03
00:18:55.760 : en:Chapter 04
00:25:51.507 : en:Chapter 05
00:30:48.889 : en:Chapter 06
00:36:10.835 : en:Chapter 07
00:47:04.029 : en:Chapter 08
00:50:23.312 : en:Chapter 09
00:59:50.337 : en:Chapter 10
01:07:37.470 : en:Chapter 11
01:14:32.426 : en:Chapter 12
01:21:47.027 : en:Chapter 13
01:25:38.008 : en:Chapter 14
01:28:49.908 : en:Chapter 15
01:34:31.332 : en:Chapter 16

x264 [info]

x264 [info]: 1280x534p 1:1 @ 24000/1001 fps (cfr)
x264 [info]: frame I:1342 Avg QP:12.84 size:115002
x264 [info]: frame P:44153 Avg QP:15.63 size: 41917
x264 [info]: frame B:108749 Avg QP:17.59 size: 15516
x264 [info]: consecutive B-frames: 7.1% 7.5% 14.8% 21.3% 16.6% 23.1% 4.7% 1.4% 1.1% 1.3% 1.1%
x264 [info]: mb I I16..4: 7.5% 74.6% 17.9%
x264 [info]: mb P I16..4: 1.3% 16.2% 2.1% P16..4: 26.7% 33.2% 13.6% 0.0% 0.0% skip: 6.9%
x264 [info]: mb B I16..4: 0.1% 1.6% 0.2% B16..8: 32.8% 23.9% 5.3% direct: 6.0% skip:30.0% L0:44.4% L1:42.2% BI:13.4%
x264 [info]: 8x8 transform intra:81.6% inter:57.4%
x264 [info]: direct mvs spatial:97.9% temporal:2.1%
x264 [info]: coded y,uvDC,uvAC intra: 88.7% 87.8% 76.9% inter: 30.9% 28.5% 17.3%
x264 [info]: i16 v,h,dc,p: 36% 20% 4% 40%
x264 [info]: i8 v,h,dc,ddl,ddr,vr,hd,vl,hu: 10% 10% 7% 9% 13% 12% 13% 12% 14%
x264 [info]: i4 v,h,dc,ddl,ddr,vr,hd,vl,hu: 16% 13% 6% 7% 14% 12% 12% 9% 11%
x264 [info]: i8c dc,h,v,p: 47% 22% 14% 17%
x264 [info]: Weighted P-Frames: Y:3.0% UV:2.0%
x264 [info]: ref P L0: 49.6% 8.9% 17.2% 6.6% 5.2% 3.6% 3.4% 1.9% 1.7% 1.4% 0.4% 0.0%
x264 [info]: ref B L0: 69.4% 13.1% 6.4% 3.9% 2.4% 1.9% 1.7% 0.8% 0.3%
x264 [info]: ref B L1: 92.2% 7.8%
x264 [info]: kb/s:4591.69
x264 [info]: encoded 154244 frames, 1.796 fps, 4591.69 kb/s, 3521.4 MB

Скриншот c названием фильма

Скриншоты

Сравнение

RU vs US

source vs encode




Скачать

Скачать торрент!

Как скачивать? · Что такое торрент? · Рейтинг и ограничения

Сайт не распространяет и не хранит электронные версии произведений, а лишь предоставляет доступ к создаваемому пользователями каталогу ссылок на торрент-файлы, которые содержат только списки хеш-сумм

[Профиль] [ЛС]
Показать сообщения:    
Ответить на тему

Текущее время: Сегодня 22:35

Часовой пояс: GMT + 4



Вы не можете начинать темы
Вы не можете отвечать на сообщения
Вы не можете редактировать свои сообщения
Вы не можете удалять свои сообщения
Вы не можете голосовать в опросах
Вы не можете прикреплять файлы к сообщениям
Вы не можете скачивать файлы