Вспоминая 1942 / Yi jiu si er (Back to 1942) (Фэн Сяоган / Feng Xiaogang) [2012, Китай, драма, DVB] Dub

Ответить на тему
 
Автор Сообщение

user ®

Стаж: 11 лет

Сообщений: 15151

Пост Пост: #1 от 10-Сен-2013 08:40

[Цитировать]

Вспоминая 1942 / Yi jiu si er (Back to 1942) Страна: Китай
Жанр: драма
Год выпуска: 2012
Продолжительность: 02:20:32
Перевод: Профессиональный (дублированный)
Cубтитры: нет
Оригинальная аудиодорожка: нет
Режиссер: Фэн Сяоган / Feng Xiaogang
В ролях: Чжан Гуоли, Чэнь Даомин, Ли Сюэцзянь, Чжан Ханьюй, Эдриан Броуди, Тим Роббинс, Сюй Фань, Алек Су, Альфред Синг, Мо Чжан
Описание: 1942 год. Китай сотрясает Вторая мировая война. Застрявшая в феодализме страна оккупирована Японией. Засуха и неурожай. Приближается голод, который может уничтожить миллионы людей. Местные правители закрывают глаза на происходящее, увлёкшись внутренними распрями. Американский журналист и дипломат пытаются спасти людей, которые обречены на смерть.
Доп. информация: запись со спутника (телеканал Премьера, НТВ+)
Сэмпл: http://sendfile.su/864890
Качество видео: DVB
Формат видео: TS
Видео: MPEG 2, 720x576 (4x3), 25,000 fps/сек, 2001 Kb/s
Аудио: MP 2, 48,0 КГц, 192 Kb/s, 2 ch

MediaInfo

Видео
Идентификатор : 322 (0x142)
Идентификатор меню : 1 (0x1)
Формат : MPEG Video
Версия формата : Version 2
Профиль формата : Main@Main
Параметр BVOP формата : Да
Параметр матрицы формата : Выборочная
Параметр GOP формата : Variable
Идентификатор кодека : 2
Продолжительность : 2 ч. 20 м.
Вид битрейта : Переменный
Битрейт : 2001 Кбит/сек
Максимальный битрейт : 15,0 Мбит/сек
Ширина : 720 пикселей
Высота : 576 пикселей
Соотношение сторон : 16:9
Частота кадров : 25,000 кадров/сек
Стандарт вещания : PAL
Цветовое пространство : YUV
Субдискретизация насыщенности : 4:2:0
Битовая глубина : 8 бит
Тип развёртки : Чересстрочная
Порядок развёртки : Верхнее поле первое
Метод сжатия : С потерями
Бит/(Пиксели*Кадры) : 0.193
TimeCode_FirstFrame : 00:00:00:00
TimeCode_Source : Group of pictures header
Размер потока : 1,96 Гбайт (87%)
Аудио
Идентификатор : 405 (0x195)
Идентификатор меню : 1 (0x1)
Формат : MPEG Audio
Версия формата : Version 1
Профиль формата : Layer 2
Идентификатор кодека : 3
Продолжительность : 2 ч. 20 м.
Вид битрейта : Постоянный
Битрейт : 192 Кбит/сек
Каналы : 2 канала
Частота : 48,0 КГц
Метод сжатия : С потерями
Задержка видео : 9 мс.
Размер потока : 193 Мбайт (8%)
Язык : Russian

Скриншот c названием фильма

Скриншоты

Скачать

Скачать торрент! Вспоминая 1942 / Yi jiu si er (Back to 1942) (Фэн Сяоган / Feng Xiaogang) [2012, Китай, драма, DVB] Dub

Как скачивать? · Что такое торрент? · Рейтинг и ограничения

Сайт не распространяет и не хранит электронные версии произведений, а лишь предоставляет доступ к создаваемому пользователями каталогу ссылок на торрент-файлы, которые содержат только списки хеш-сумм

[Профиль] [ЛС]
Показать сообщения:    
Ответить на тему

Текущее время: Сегодня 10:08

Часовой пояс: GMT + 4



Вы не можете начинать темы
Вы не можете отвечать на сообщения
Вы не можете редактировать свои сообщения
Вы не можете удалять свои сообщения
Вы не можете голосовать в опросах
Вы не можете прикреплять файлы к сообщениям
Вы не можете скачивать файлы