Гувернер / Знакомство / Parichay (Сампуран Сингх Гульзар / Gulzar) [1972, Индия, Семейный, DVDRip] Dub + MVO

Ответить на тему
 
Автор Сообщение

user ®

Стаж: 12 лет

Сообщений: 15124

Пост Пост: #1 от 10-Сен-2013 02:25

[Цитировать]

Гувернер / Знакомство / Parichay
-Страна: Индия
Жанр: Семейный
Год выпуска: 1972
Продолжительность: 02:17:47-Перевод: Профессиональный (полное дублирование) + Профессиональный (многоголосый закадровый)
Cубтитры: Нет-Режиссер: Сампуран Сингх Гульзар / Gulzar-В ролях: Джитендра, Джая Бхадури, Пран, Говардан Асрани, А.К. Хангал, Лила Мишра, Кешто Мукхерджи, Санджив Кумар, Винод Кханна, Пайнтал, Гита Сиддхарт, Дев Кишан
Дети: беби Пинки, мастер Кишор, мастер Рави, мастер Раджу-Описание: Наставник назначен преподавателем непослушным и вредным внукам Бахадура Рая. В то время как дедушка, бывший военный, делает все, чтобы приструнить и дисциплинировать внуков, внуки более симпатизируют веселому наставнику. Наставник постепенно располагает к себе детей, и теперь хочет получить симпатию и старшей дочери хозяина. Как только это случается, наставнику остается самое трудное - расположить к себе строгого дедушку.-- --Качество видео: DVDRip
Формат видео: AVI-Видео: XviD build 47, 688x512 (1.34:1), 23.976 fps, 1738 kbps avg
Аудио #1: AC3, 48 kHz, 2 ch, 192 Kbps [Dub]
Аудио #2: AC3, 48 kHz, 6 ch, 320 Kbps [MVO]--Риппер: soso4eg
Синхронизация дубляжа: василисса-За дублированную дорожку спасибо СЕРЖИК1981-- -
-
-

Скриншоты


-

MI

Общее
Полное имя : D:\[Релизы]\[DVDRip]\Guvernyor.1972.DVDRip.XviD-soso4eg.avi
Формат : AVI
Формат/Информация : Audio Video Interleave
Профиль формата : OpenDML
Размер файла : 2,18 Гбайт
Продолжительность : 2 ч. 17 м.
Общий поток : 2268 Кбит/сек
Название фильма : Guvernyor.1972.DVDRip.XviD-soso4eg
Режиссёр : soso4eg
Программа кодирования : VirtualDubMod 1.5.10.3 | www.virtualdub-fr.org || (build 2550/release)
Видео
Идентификатор : 0
Формат : MPEG-4 Visual
Профиль формата : Advanced Simple@L5
Параметр BVOP формата : 1
Параметр QPel формата : Нет
Параметр GMC формата : Без точки перехода
Параметр матрицы формата : Выборочная
Идентификатор кодека : XVID
Идентификатор кодека/Подсказка : XviD
Продолжительность : 2 ч. 17 м.
Битрейт : 1738 Кбит/сек
Ширина : 688 пикселей
Высота : 512 пикселей
Соотношение сторон : 4:3
Частота кадров : 23,976 кадра/сек
Цветовое пространство : YUV
Субдискретизация насыщенности : 4:2:0
Битовая глубина : 8 бит
Тип развёртки : Прогрессивная
Метод сжатия : С потерями
Бит/(Пиксели*Кадры) : 0.206
Размер потока : 1,67 Гбайт (77%)
Библиотека кодирования : XviD 1.2.0.dev47 (UTC 2006-11-01)
Аудио #1
Идентификатор : 1
Формат : AC-3
Формат/Информация : Audio Coding 3
Расширение режима : CM (complete main)
Параметр Endianness формата : Big
Идентификатор кодека : 2000
Продолжительность : 2 ч. 17 м.
Вид битрейта : Постоянный
Битрейт : 192 Кбит/сек
Каналы : 2 канала
Расположение каналов : Front: L R
Частота : 48,0 КГц
Битовая глубина : 16 бит
Метод сжатия : С потерями
Размер потока : 189 Мбайт (8%)
Выравнивание : Разделение по промежуткам
Продолжительность промежутка : 42 мс. (1,00 видеокадр)
Время предзагрузки промежутка : 500 мс.
Аудио #2
Идентификатор : 2
Формат : AC-3
Формат/Информация : Audio Coding 3
Расширение режима : CM (complete main)
Параметр Endianness формата : Big
Идентификатор кодека : 2000
Продолжительность : 2 ч. 17 м.
Вид битрейта : Постоянный
Битрейт : 320 Кбит/сек
Каналы : 6 каналов
Расположение каналов : Front: L C R, Side: L R, LFE
Частота : 48,0 КГц
Битовая глубина : 16 бит
Метод сжатия : С потерями
Размер потока : 315 Мбайт (14%)
Выравнивание : Разделение по промежуткам
Продолжительность промежутка : 42 мс. (1,00 видеокадр)
Время предзагрузки промежутка : 500 мс.

-
-
Скачать

Скачать торрент! Гувернер / Знакомство / Parichay (Сампуран Сингх Гульзар / Gulzar) [1972, Индия, Семейный, DVDRip] Dub + MVO

Как скачивать? · Что такое торрент? · Рейтинг и ограничения

Сайт не распространяет и не хранит электронные версии произведений, а лишь предоставляет доступ к создаваемому пользователями каталогу ссылок на торрент-файлы, которые содержат только списки хеш-сумм

[Профиль] [ЛС]
Показать сообщения:    
Ответить на тему

Текущее время: Сегодня 20:53

Часовой пояс: GMT + 4



Вы не можете начинать темы
Вы не можете отвечать на сообщения
Вы не можете редактировать свои сообщения
Вы не можете удалять свои сообщения
Вы не можете голосовать в опросах
Вы не можете прикреплять файлы к сообщениям
Вы не можете скачивать файлы