Война миров Z / World War Z (Марк Форстер / Marc Forster) [2013 г., ужасы, фантастика, боевик, триллер, приключения, BDRip 720p] [Расширенная версия / Unrated Cut] Dub + Original (Eng)

Ответить на тему
 
Автор Сообщение

user ®

Стаж: 7 лет 7 месяцев

Сообщений: 20008

Пост Пост: #1 от 10-Сен-2013 02:25

[Цитировать]

Война миров Z / World War Z Год выпуска: 2013
Страна: США / Paramount Pictures
Жанр: ужасы, фантастика, боевик, триллер, приключения
Продолжительность: 02:03:03
Перевод: дублированный [не кинотеатральный]
Субтитры: русские, английские Режиссер:
  • Марк Форстер / Marc Forster
В ролях:
  • Брэд Питт, Мирей Инос, Стерлинг Джеринс, Эбигейл Харгров, Даниэла Картес, Фана Мокоэна, Пьерфранческо Фавино, Питер Капальди, Мориц Бляйбтрой, Рут Негга
Описание:
Сотрудник ООН Джерри Лэйн наперегонки со временем пытается остановить заражение, способное полностью истребить человечество.

Качество: BDRip 720p [HiDt]
Формат: MKV
Видео кодек: x264
Аудио кодек: AC3, DTS
Видео: 1280x534, 23.976 fps, 0.323 bit/pixel, 5 293 Kbps
Аудио: 48.0 KHz, AC3, 5.1 ch (L,C,R,l,r) + LFE, 448 kbps |Дубляж|
Аудио: 48.0 KHz, DTS, 5.1 ch (L,C,R,l,r) + LFE, 1536 kbps |Оригинал|

MediaInfo

Код:
General
Unique ID : 230297411926869194800051766754693784954 (0xAD41AB0D7BA49A1FA6F387F61372A57A)
Complete name : D:\Фильмы\World_War_Z.mkv
Format : Matroska
Format version : Version 4 / Version 2
File size : 6.23 GiB
Duration : 2h 3mn
Overall bit rate : 7 251 Kbps
Movie name : HiDt
Encoded date : UTC 2013-09-09 01:31:50
Writing application : mkvmerge v6.3.0 ('You can't stop me!') built on Jun 28 2013 20:09:41
Writing library : libebml v1.3.0 + libmatroska v1.4.0
Video
ID : 1
Format : AVC
Format/Info : Advanced Video Codec
Format profile : High@L4.1
Format settings, CABAC : Yes
Format settings, ReFrames : 12 frames
Codec ID : V_MPEG4/ISO/AVC
Duration : 2h 3mn
Bit rate : 5 293 Kbps
Width : 1 280 pixels
Height : 534 pixels
Display aspect ratio : 2.40:1
Frame rate mode : Constant
Frame rate : 23.976 fps
Color space : YUV
Chroma subsampling : 4:2:0
Bit depth : 8 bits
Scan type : Progressive
Bits/(Pixel*Frame) : 0.323
Stream size : 4.43 GiB (71%)
Title : Война миров Z | World War Z
Writing library : x264 core 138 r2358 9e941d1
Encoding settings : cabac=1 / ref=12 / deblock=1:-3:-3 / analyse=0x3:0x113 / me=tesa / subme=11 / psy=1 / psy_rd=0.99:0.01 / mixed_ref=1 / me_range=32 / chroma_me=1 / trellis=2 / 8x8dct=1 / cqm=0 / deadzone=21,11 / fast_pskip=0 / chroma_qp_offset=-3 / threads=12 / lookahead_threads=2 / sliced_threads=0 / nr=0 / decimate=1 / interlaced=0 / bluray_compat=0 / constrained_intra=0 / bframes=8 / b_pyramid=2 / b_adapt=2 / b_bias=0 / direct=3 / weightb=1 / open_gop=0 / weightp=2 / keyint=240 / keyint_min=23 / scenecut=40 / intra_refresh=0 / rc_lookahead=60 / rc=2pass / mbtree=1 / bitrate=5293 / ratetol=1.0 / qcomp=0.70 / qpmin=0 / qpmax=69 / qpstep=4 / cplxblur=20.0 / qblur=0.5 / vbv_maxrate=40000 / vbv_bufsize=38000 / nal_hrd=none / ip_ratio=1.40 / aq=1:0.90 / zones=166660,176890,b=0.1
Language : English
Default : Yes
Forced : No
Audio #1
ID : 2
Format : AC-3
Format/Info : Audio Coding 3
Mode extension : CM (complete main)
Format settings, Endianness : Big
Codec ID : A_AC3
Duration : 2h 3mn
Bit rate mode : Constant
Bit rate : 448 Kbps
Channel count : 6 channels
Channel positions : Front: L C R, Side: L R, LFE
Sampling rate : 48.0 KHz
Bit depth : 16 bits
Compression mode : Lossy
Stream size : 394 MiB (6%)
Title : Дубляж - Line
Language : Russian
Default : Yes
Forced : No
Audio #2
ID : 3
Format : DTS
Format/Info : Digital Theater Systems
Mode : 16
Format settings, Endianness : Big
Codec ID : A_DTS
Duration : 2h 3mn
Bit rate mode : Constant
Bit rate : 1 509 Kbps
Channel count : 6 channels
Channel positions : Front: L C R, Side: L R, LFE
Sampling rate : 48.0 KHz
Bit depth : 24 bits
Compression mode : Lossy
Stream size : 1.30 GiB (21%)
Title : Оригинал
Language : English
Default : No
Forced : No
Text #1
ID : 4
Format : UTF-8
Codec ID : S_TEXT/UTF8
Codec ID/Info : UTF-8 Plain Text
Language : Russian
Default : No
Forced : No
Text #2
ID : 5
Format : UTF-8
Codec ID : S_TEXT/UTF8
Codec ID/Info : UTF-8 Plain Text
Language : English
Default : No
Forced : No
Menu
00:00:00.000 : en:Chapter 01
00:05:05.179 : en:Chapter 02
00:13:53.999 : en:Chapter 03
00:22:43.195 : en:Chapter 04
00:29:46.034 : en:Chapter 05
00:35:21.494 : en:Chapter 06
00:42:23.457 : en:Chapter 07
00:52:37.946 : en:Chapter 08
00:58:53.821 : en:Chapter 09
01:07:18.868 : en:Chapter 10
01:15:11.757 : en:Chapter 11
01:24:02.037 : en:Chapter 12
01:29:08.801 : en:Chapter 13
01:34:50.518 : en:Chapter 14
01:43:45.469 : en:Chapter 15
01:52:17.981 : en:Chapter 16
01:55:51.653 : en:Chapter 17

Скриншоты

-
Скачать

Скачать торрент!

Как скачивать? · Что такое торрент? · Рейтинг и ограничения

Сайт не распространяет и не хранит электронные версии произведений, а лишь предоставляет доступ к создаваемому пользователями каталогу ссылок на торрент-файлы, которые содержат только списки хеш-сумм

[Профиль] [ЛС]
Показать сообщения:    
Ответить на тему

Текущее время: Сегодня 18:11

Часовой пояс: GMT + 4



Вы не можете начинать темы
Вы не можете отвечать на сообщения
Вы не можете редактировать свои сообщения
Вы не можете удалять свои сообщения
Вы не можете голосовать в опросах
Вы не можете прикреплять файлы к сообщениям
Вы не можете скачивать файлы