Лучшее предложение / La migliore offerta / The Best Offer (Джузеппе Торнаторе / Giuseppe Tornatore) [2013, Италия, триллер, драма, мелодрама BDRip] Dub + Original + Sub (rus)

Ответить на тему
 
Автор Сообщение

user ®

Стаж: 7 лет 7 месяцев

Сообщений: 20008

Пост Пост: #1 от 09-Сен-2013 16:55

[Цитировать]

Лучшее предложение / La migliore offerta / The Best Offer
Год выпуска: 2013
Страна: Италия
Жанр: триллер, мелодрама, драма
Продолжительность: 02:09:32
Перевод: Профессиональный (полное дублирование) + Оригинальная (английская) дорожка
Субтитры: русские - softsub (SRT)
В ролях: Джеффри Раш (Virgil Oldman), Джим Стёрджесс (Robert), Сильвия Хукс (Claire), Дональд Сазерленд (Billy Whistler), Филип Джексон (Fred), Дермот Краули (Lambert), Кируна Стамелл (Girl in the bar), Лия Кебеде (Sarah), Катерина Каподилиста (Young woman), Ген Сето (Housekeeper), Клаус Таубер (Virgil's Assistant #1), Максимилиан Дирр (Virgil's Assistant #2)-Описание: Вергилий Олдман — управляющий директор ведущего аукционного дома. Время от времени со своим партнёром Билли на глазах у всего мира он проворачивает хитроумные аферы, ловко манипулируя и вводя в заблуждение как продавцов, так и покупателей. В секретном зале своей виллы он собрал сотни бесценных картин из разных эпох.
Однажды таинственная женщина, скрывающая свою личность, просит его продать антиквариат её семьи. Среди многочисленных произведений искусства раз за разом Олдман обнаруживает частицы давно утерянного механизма. В своё время поговаривали, что для того чтобы его оживить, создатели прибегали к помощи высших сил… Складывая, как пазл, найденные детали, вместе со своим гениальным другом Робертом они пытаются разгадать этот секрет. Но Олдман заинтересован не только предметами старины…
-kinopoisk.ru: 8.058 (9 605)
imdb.com: 7.7 (8 191)

Качество: BDRip
Формат: AVI //SAMPLE//
Видео: 720x304 (2.37:1), 24 fps, XviD MPEG-4 ~1574 kbps avg, 0.30 bit/pixel
Аудио RUS: 48 kHz, AC3 Dolby Digital, 3/2 (L,C,R,l,r) + LFE ch, ~448 kbps - DUB
Аудио ENG: 48 kHz, AC3 Dolby Digital, 3/2 (L,C,R,l,r) + LFE ch, ~384 kbps - Original

MediaInfo

Общее
Полное имя : F:\Video\AVI\Films\Luchshee.Predlozhenie.2013.DUAL.BDRip.XviD.AC3.-AllFilms\Luchshee.Predlozhenie.2013.DUAL.BDRip.XviD.AC3.-AllFilms.avi
Формат : AVI
Формат/Информация : Audio Video Interleave
Профиль формата : OpenDML
Размер файла : 2,18 Гбайт
Продолжительность : 2 ч. 9 м.
Общий поток : 2413 Кбит/сек
Название фильма : Лучшее предложение / The Best Offer / La migliore offerta (2013)
Режиссёр : Shevon (Blu-Ray Disk)
Программа кодирования : VirtualDubMod 1.5.10.3 | www.virtualdub-fr.org || (build 2550/release)
Правообладатель : AllFilms
Видео
Идентификатор : 0
Формат : MPEG-4 Visual
Профиль формата : Advanced Simple@L5
Параметр BVOP формата : 1
Параметр QPel формата : Нет
Параметр GMC формата : Без точки перехода
Параметр матрицы формата : Выборочная
Идентификатор кодека : XVID
Идентификатор кодека/Подсказка : XviD
Продолжительность : 2 ч. 9 м.
Битрейт : 1563 Кбит/сек
Ширина : 720 пикселей
Высота : 304 пикселя
Соотношение сторон : 2,35:1
Частота кадров : 24,000 кадра/сек
Цветовое пространство : YUV
Субдискретизация насыщенности : 4:2:0
Битовая глубина : 8 бит
Тип развёртки : Прогрессивная
Метод сжатия : С потерями
Бит/(Пиксели*Кадры) : 0.298
Размер потока : 1,41 Гбайт (65%)
Библиотека кодирования : XviD 65
Аудио #1
Идентификатор : 1
Формат : AC-3
Формат/Информация : Audio Coding 3
Расширение режима : CM (complete main)
Параметр Endianness формата : Big
Идентификатор кодека : 2000
Продолжительность : 2 ч. 9 м.
Вид битрейта : Постоянный
Битрейт : 448 Кбит/сек
Каналы : 6 каналов
Расположение каналов : Front: L C R, Side: L R, LFE
Частота : 48,0 КГц
Битовая глубина : 16 бит
Метод сжатия : С потерями
Размер потока : 415 Мбайт (19%)
Выравнивание : Разделение по промежуткам
Продолжительность промежутка : 42 мс. (1,00 видеокадр)
Время предзагрузки промежутка : 500 мс.
Аудио #2
Идентификатор : 2
Формат : AC-3
Формат/Информация : Audio Coding 3
Расширение режима : CM (complete main)
Параметр Endianness формата : Big
Идентификатор кодека : 2000
Продолжительность : 2 ч. 9 м.
Вид битрейта : Постоянный
Битрейт : 384 Кбит/сек
Каналы : 6 каналов
Расположение каналов : Front: L C R, Side: L R, LFE
Частота : 48,0 КГц
Битовая глубина : 16 бит
Метод сжатия : С потерями
Размер потока : 356 Мбайт (16%)
Выравнивание : Разделение по промежуткам
Продолжительность промежутка : 42 мс. (1,00 видеокадр)
Время предзагрузки промежутка : 500 мс.

Скриншоты

-
Скачать

Скачать торрент!

Как скачивать? · Что такое торрент? · Рейтинг и ограничения

Сайт не распространяет и не хранит электронные версии произведений, а лишь предоставляет доступ к создаваемому пользователями каталогу ссылок на торрент-файлы, которые содержат только списки хеш-сумм

[Профиль] [ЛС]
Показать сообщения:    
Ответить на тему

Текущее время: Сегодня 06:27

Часовой пояс: GMT + 4



Вы не можете начинать темы
Вы не можете отвечать на сообщения
Вы не можете редактировать свои сообщения
Вы не можете удалять свои сообщения
Вы не можете голосовать в опросах
Вы не можете прикреплять файлы к сообщениям
Вы не можете скачивать файлы