Побочный эффект / Side Effects (Стивен Содерберг / Steven Soderbergh) [2013, США, триллер, драма, криминал, BDRip] Dub

Ответить на тему
 
Автор Сообщение

user ®

Стаж: 7 лет 7 месяцев

Сообщений: 20008

Пост Пост: #1 от 09-Сен-2013 13:50

[Цитировать]

Побочный эффект / Side Effects
Страна: США
Жанр: триллер, драма, криминал
Год выпуска: 2013
Продолжительность: 01:46:22
Перевод: Профессиональный (дублированный)
Cубтитры: нет
Режиссер: Стивен Содерберг / Steven Soderbergh
В ролях: Джуд Лоу, Руни Мара, Кэтрин Зета-Джонс, Ченнинг Татум, Кармен Пелаес, Марин Айрлэнд, Полли Дрэйпер, Аральдо Альварес, Джеймс Мартинез, Владимир Версейл, Жаклин Антарамиан, Мишель Вергара Мур, Кэти Лоус, Дэвид Костабайл, Мэми Гаммер, Стивен Платт, Виктор Круз, Винесса Шоу, Элизабет Родригез, Питер Фридман, Андреа Богарт, Лайла Робинс
Описание: Жизнь главной героини Эмили пошла под откос, когда её мужа посадили в тюрьму. Вначале она пыталась спастись от депрессии своими силами, горстями глотая успокоительное. После того, как стало понятно, что это не поможет, Эмили не оставалось другого выхода кроме отправления в психиатрическую лечебницу к добрым и заботливым людям в белых халатах. Теперь главная героиня борется со своими внутренними демонами уже не одна — справиться с угнетённым состоянием ей помогают два лучших доктора клиники, а также экспериментальные препараты, обладающие довольно странными побочными эффектами. Не получится ли так, что все внутренние страхи Эмили вместо того, чтобы исчезнуть, вырвутся наружу?

Качество видео: BDRip
Формат видео: AVI
Видео: 608x336, 23.976 fps, XviD ~826 kbps avg, 0.159 bit/pixel
Аудио: 48 kHz, MPEG Layer 3, 2 ch, ~128 kbps avgРелиз группы

MediaInfo

Общее
Полное имя                               : D:\Раздачи\Side Effects BDrip.avi
Формат                                   : AVI
Формат/Информация                        : Audio Video Interleave
Размер файла                             : 733 Мбайт
Продолжительность                        : 1 ч. 46 м.
Общий поток                              : 963 Кбит/сек
Программа кодирования                    : VirtualDubMod 1.5.10.2 (build 2540/release)
Библиотека кодирования                   : VirtualDubMod build 2540/release
Видео
Идентификатор                            : 0
Формат                                   : MPEG-4 Visual
Профиль формата                          : Advanced Simple@L5
Параметр BVOP формата                    : Нет
Параметр QPel формата                    : Нет
Параметр GMC формата                     : Без точки перехода
Параметр матрицы формата                 : Default (H.263)
Идентификатор кодека                     : XVID
Идентификатор кодека/Подсказка           : XviD
Продолжительность                        : 1 ч. 46 м.
Битрейт                                  : 826 Кбит/сек
Ширина                                   : 608 пикселей
Высота                                   : 336 пикселей
Соотношение сторон                       : 16:9
Частота кадров                           : 23,976 кадра/сек
Цветовое пространство                    : YUV
Субдискретизация насыщенности            : 4:2:0
Битовая глубина                          : 8 бит
Тип развёртки                            : Прогрессивная
Метод сжатия                             : С потерями
Бит/(Пиксели*Кадры)                      : 0.169
Размер потока                            : 629 Мбайт (86%)
Библиотека кодирования                   : XviD 1.2.1 (UTC 2008-12-04)
Аудио
Идентификатор                            : 1
Формат                                   : MPEG Audio
Версия формата                           : Version 1
Профиль формата                          : Layer 3
Режим                                    : Joint stereo
Расширение режима                        : MS Stereo
Идентификатор кодека                     : 55
Идентификатор кодека/Подсказка           : MP3
Продолжительность                        : 1 ч. 46 м.
Вид битрейта                             : Постоянный
Битрейт                                  : 128 Кбит/сек
Каналы                                   : 2 канала
Частота                                  : 48,0 КГц
Метод сжатия                             : С потерями
Размер потока                            : 97,3 Мбайт (13%)
Выравнивание                             : Соединение по промежуткам
Продолжительность промежутка             : 42  мс. (1,00 видеокадр)
Время предзагрузки промежутка            : 504  мс.
Библиотека кодирования                   : LAME3.99r
Настройки программы                      : -m j -V 4 -q 2 -lowpass 17 -b 128

Скриншот c названием фильма

Скриншоты

Скачать

Скачать торрент!

Как скачивать? · Что такое торрент? · Рейтинг и ограничения

Сайт не распространяет и не хранит электронные версии произведений, а лишь предоставляет доступ к создаваемому пользователями каталогу ссылок на торрент-файлы, которые содержат только списки хеш-сумм

[Профиль] [ЛС]
Показать сообщения:    
Ответить на тему

Текущее время: Сегодня 23:21

Часовой пояс: GMT + 4



Вы не можете начинать темы
Вы не можете отвечать на сообщения
Вы не можете редактировать свои сообщения
Вы не можете удалять свои сообщения
Вы не можете голосовать в опросах
Вы не можете прикреплять файлы к сообщениям
Вы не можете скачивать файлы