Пирамммида (Эльдар Салаватов) [2011, Россия, боевик, триллер, драма, криминал, биография, BDRip 1080p]

Ответить на тему
 
Автор Сообщение

user ®

Стаж: 7 лет 7 месяцев

Сообщений: 20008

Пост Пост: #1 от 08-Сен-2013 22:05

[Цитировать]

Пирамммида
Страна: Россия
Студия: Leopolis
Жанр: боевик, триллер, драма, криминал, биография
Год выпуска: 2011
Продолжительность: 01:49:45
Субтитры: нет
Навигация по главам: есть
Режиссер: Эльдар Салаватов
В ролях: Алексей Серебряков, Петр Федоров, Федор Бондарчук, Юрий Цурило, Артем Михалков, Алексей Горбунов, Анна Михалкова, Екатерина Вилкова, Даниил Спиваковский, Игорь Яцко, Никита Салопин, Сергей Колтаков, Анастасия Ричи, Сюзанна Шпак, Юлия Гришина, Петр Зекавица, Николай Ковбас, Георгий Сульгин, Богдан Титомир, Владимир Пермяков, Вячеслав Воробьев-Ликеров, Елена Замятина, Геннадий Давыдько, Николай Кириченко, Валерия Тимофеева, Андрей Карако, Андрей Перепечко, Денис Никитик, Анна Полупанова, Николай Рябычин, Светлана Зеленковская, Дмитрий Врангель, Николай Титов, Анна Кисель, Вячеслав Шкалидо, Борис Борисенок, Виктор Гудинович, Алла Ельяшевич, Елена Борисова, Владимир Соснин
Описание: Россия, начало 90-х. Страна в процессе болезненного перехода от сверхцентрализованной плановой экономики к рыночным отношениям. Простые люди, прежде жившие в условиях стабильности, растеряны и перепуганы. Все пришло в движение, ход истории разворачивается на глазах. Поворотные моменты истории всегда способствуют появлению всевозможных самозванцев и талантливых мошенников. Сергей Мамонтов ищет, куда применить себя и свой интеллект. И находит. Мамонтов заказывает макет «ценной бумаги» с имперской вязью, богатым орнаментом, водяными знаками и собственным портретом в самом центре. Своим «деньгам» он назначает цену сам и продает их по принципу: сегодня всегда дороже, чем вчера. Началась активная рекламная кампания. Чуть больше двух недель оказалось достаточно, чтобы народ уже выстроился в очереди за «мамонтовками», а Мамонтов стал едва ли не национальным героем. И могущественные банкиры, и властные структуры в растерянности - никто не имеет понятия, как прекратить этот беспредел - а в МММ уже набралось больше 10 миллионов вкладчиков… Заговоры, похищения людей, погони, заказные убийства. И немного любви.

Релиз: fanatus
Качество видео: BDRip 1080p
Исходник: Blu-Ray 1080p
Контейнер: MKV
Видео: MPEG-4 AVC, 15.0 Mbps , 1920x818 (2.35:1), 23.976 fps, 0.398 bit/pixel
Аудио: DTS, 6 ch, 48 kHz, 1510 kbps

MediaInfo

General
Unique ID : 246386511895421062913988086336755221836 (0xB95C50ECEDDA3C0F899E6CB0491A454C)
Complete name : E:\PiraMMMida.2011.x264.BDRip.1080p.fanatus.mkv
Format : Matroska
Format version : Version 2
File size : 12.7 GiB
Duration : 1h 49mn
Overall bit rate : 16.5 Mbps
Movie name : PiraMMMida (2011) - fanatus
Encoded date : UTC 2013-09-08 14:31:54
Writing application : mkvmerge v3.4.0 ('Rapunzel') сборка от May 15 2010 09:38:20
Writing library : libebml v0.8.0 + libmatroska v0.9.0
Video
ID : 1
Format : AVC
Format/Info : Advanced Video Codec
Format profile : High@L4.1
Format settings, CABAC : Yes
Format settings, ReFrames : 5 frames
Codec ID : V_MPEG4/ISO/AVC
Duration : 1h 49mn
Bit rate : 15.0 Mbps
Width : 1 920 pixels
Height : 818 pixels
Display aspect ratio : 2.35:1
Frame rate : 23.976 fps
Color space : YUV
Chroma subsampling : 4:2:0
Bit depth : 8 bits
Scan type : Progressive
Bits/(Pixel*Frame) : 0.398
Stream size : 11.2 GiB (89%)
Title : PiraMMMida (2011)
Writing library : x264 core 138 r2358kMod 9e941d1
Encoding settings : cabac=1 / ref=5 / deblock=1:-3:-3 / analyse=0x3:0x113 / me=tesa / subme=11 / psy=1 / fade_compensate=0.00 / psy_rd=1.00:0.20 / mixed_ref=1 / me_range=48 / chroma_me=1 / trellis=2 / 8x8dct=1 / cqm=0 / deadzone=21,11 / fast_pskip=0 / chroma_qp_offset=-3 / threads=16 / lookahead_threads=4 / sliced_threads=0 / nr=0 / decimate=0 / interlaced=0 / bluray_compat=0 / constrained_intra=0 / bframes=10 / b_pyramid=2 / b_adapt=2 / b_bias=0 / direct=3 / weightb=1 / open_gop=0 / weightp=2 / keyint=240 / keyint_min=23 / scenecut=40 / intra_refresh=0 / rc_lookahead=240 / rc=2pass / mbtree=0 / bitrate=15000 / ratetol=1.0 / qcomp=0.70 / qpmin=0 / qpmax=69 / qpstep=4 / cplxblur=20.0 / qblur=0.5 / vbv_maxrate=50000 / vbv_bufsize=62500 / nal_hrd=none / ip_ratio=1.30 / pb_ratio=1.20 / aq=3:0.65
Language : Russian
Default : Yes
Forced : No
Audio
ID : 2
Format : DTS
Format/Info : Digital Theater Systems
Codec ID : A_DTS
Duration : 1h 49mn
Bit rate mode : Constant
Bit rate : 1 510 Kbps
Channel(s) : 6 channels
Channel positions : Front: L C R, Side: L R, LFE
Sampling rate : 48.0 KHz
Bit depth : 16 bits
Compression mode : Lossy
Stream size : 1.16 GiB (9%)
Title : Original
Language : Russian
Default : Yes
Forced : No
Menu
00:00:00.000 : en:Chapter 01
00:06:29.972 : en:Chapter 02
00:14:45.551 : en:Chapter 03
00:21:46.888 : en:Chapter 04
00:28:05.642 : en:Chapter 05
00:35:59.824 : en:Chapter 06
00:41:38.829 : en:Chapter 07
00:46:57.105 : en:Chapter 08
00:53:27.245 : en:Chapter 09
01:02:08.558 : en:Chapter 10
01:07:37.094 : en:Chapter 11
01:14:19.830 : en:Chapter 12
01:23:23.456 : en:Chapter 13
01:29:22.273 : en:Chapter 14
01:35:54.206 : en:Chapter 15
01:45:00.460 : en:Chapter 16
01:49:45.829 : en:Chapter 17

x264 [info]

x264 [info]: 1920x818p 1:1 @ 24000/1001 fps (cfr)
x264 [info]: frame I:945 Avg QP:16.72 size:215592
x264 [info]: frame P:32370 Avg QP:18.54 size:116650
x264 [info]: frame B:124589 Avg QP:19.98 size: 67096
x264 [info]: consecutive B-frames: 1.7% 2.4% 7.3% 12.9% 15.7% 43.1% 10.0% 2.8% 1.6% 1.6% 0.8%
x264 [info]: mb I I16..4: 18.7% 63.4% 17.8%
x264 [info]: mb P I16..4: 2.4% 23.1% 2.4% P16..4: 25.6% 31.2% 11.5% 0.0% 0.0% skip: 3.9%
x264 [info]: mb B I16..4: 0.3% 4.5% 0.3% B16..8: 39.3% 23.1% 4.6% direct:11.8% skip:16.0% L0:43.2% L1:39.5% BI:17.4%
x264 [info]: 8x8 transform intra:83.5% inter:51.6%
x264 [info]: direct mvs spatial:98.5% temporal:1.5%
x264 [info]: coded y,uvDC,uvAC intra: 91.8% 88.5% 67.1% inter: 53.6% 50.3% 18.3%
x264 [info]: i16 v,h,dc,p: 12% 16% 16% 56%
x264 [info]: i8 v,h,dc,ddl,ddr,vr,hd,vl,hu: 13% 10% 12% 9% 11% 11% 11% 11% 12%
x264 [info]: i4 v,h,dc,ddl,ddr,vr,hd,vl,hu: 26% 17% 7% 6% 10% 9% 9% 8% 8%
x264 [info]: i8c dc,h,v,p: 42% 24% 17% 17%
x264 [info]: Weighted P-Frames: Y:2.3% UV:1.1%
x264 [info]: ref P L0: 44.4% 8.5% 25.9% 10.2% 10.1% 0.9% 0.0%
x264 [info]: ref B L0: 73.7% 19.2% 5.7% 1.5%
x264 [info]: ref B L1: 91.9% 8.1%
x264 [info]: kb/s:14988.47
x264 [info]: encoded 157904 frames, 0.88 fps, 14988.47 kb/s, duration 50:06:53.27

Скриншот c названием фильма

Скриншоты

Скачать

Скачать торрент!

Как скачивать? · Что такое торрент? · Рейтинг и ограничения

Сайт не распространяет и не хранит электронные версии произведений, а лишь предоставляет доступ к создаваемому пользователями каталогу ссылок на торрент-файлы, которые содержат только списки хеш-сумм

[Профиль] [ЛС]
Показать сообщения:    
Ответить на тему

Текущее время: Сегодня 20:05

Часовой пояс: GMT + 4



Вы не можете начинать темы
Вы не можете отвечать на сообщения
Вы не можете редактировать свои сообщения
Вы не можете удалять свои сообщения
Вы не можете голосовать в опросах
Вы не можете прикреплять файлы к сообщениям
Вы не можете скачивать файлы