Элитное общество / The Bling Ring (София Коппола / Sofia Coppola) [2013, США, Великобритания, Франция, Германия, Япония, драма, криминал, BDRip 1080p] Dub + Sub Eng + Original Eng

Ответить на тему
 
Автор Сообщение

user ®

Стаж: 7 лет 7 месяцев

Сообщений: 20008

Пост Пост: #1 от 07-Сен-2013 20:45

[Цитировать]

Элитное общество / The Bling Ring- Страна: США, Великобритания, Франция, Германия, Япония
Жанр: драма, криминал
Год выпуска: 2013
Продолжительность: 01:30:33-Перевод: Профессиональный (дублированный)
Cубтитры: английские
Оригинальная аудиодорожка: английский-Режиссер: София Коппола / Sofia Coppola-В ролях: Израэль Бруссар, Кэти Чанг, Таисса Фармига, Клер Элис Жюльен, Джорджия Рок, Эмма Уотсон, Лесли Манн, Карлос Миранда, Гэвин Россдэйл, Стэйси Эдвардс-Описание: В поисках адреналина и приключений пятеро отчаянных подростков ради прикола стали навещать богатые особняки в окрестностях Голливуда. Наведываясь в гости к Линдси Лохан, Орландо Блуму, Пэрис Хилтон и другим голливудским звездам, девушки, конечно, больше интересовались дизайнерской одеждой и драгоценностями, а юноши — просто деньгами. Совершив десять краж со взломом, ребятки награбили больше трех миллионов долларов…-Сэмпл: http://yadi.sk/d/GdQ8fwug8rHyT
Тип релиза: BDRip 1080p (CHD)
Контейнер: MKV
Видео: H264 / 11016 kbps / 1920x1036 / 23,976 fps / High Profile 4.1
Аудио #1: Русский дубляж / Dolby Digital / 5.1 / 384 kbps / 48 kHz
Аудио #2: Английский / DTS / 5.1 / 1536 kbps / 48 kHz
Формат субтитров: softsub (SRT)

MediaInfo

Format : Matroska
Format version : Version 2
File size : 8.15 GiB
Duration : 1h 30mn
Overall bit rate : 12.9 Mbps
Movie name : XXXVIRUz
Encoded date : UTC 2013-09-07 09:04:43
Writing application : mkvmerge v3.4.0 ('Rapunzel') збірка від May 18 2010 22:32:11
Writing library : libebml v0.8.0 + libmatroska v0.9.0
Video
ID : 1
Format : AVC
Format/Info : Advanced Video Codec
Format profile : High@L4.1
Format settings, CABAC : Yes
Format settings, ReFrames : 4 frames
Codec ID : V_MPEG4/ISO/AVC
Duration : 1h 30mn
Bit rate : 11.0 Mbps
Width : 1 920 pixels
Height : 1 036 pixels
Display aspect ratio : 1.85:1
Frame rate mode : Constant
Frame rate : 23.976 fps
Color space : YUV
Chroma subsampling : 4:2:0
Bit depth : 8 bits
Scan type : Progressive
Bits/(Pixel*Frame) : 0.231
Stream size : 6.79 GiB (83%)
Title : CHD
Writing library : x264 core 138 r2356 a1d3d17
Encoding settings : cabac=1 / ref=4 / deblock=1:-3:-3 / analyse=0x3:0x113 / me=umh / subme=10 / psy=1 / psy_rd=1.05:0.10 / mixed_ref=1 / me_range=32 / chroma_me=1 / trellis=2 / 8x8dct=1 / cqm=0 / deadzone=21,11 / fast_pskip=0 / chroma_qp_offset=-2 / threads=18 / lookahead_threads=1 / sliced_threads=0 / nr=0 / decimate=1 / interlaced=0 / bluray_compat=0 / constrained_intra=0 / bframes=5 / b_pyramid=2 / b_adapt=2 / b_bias=0 / direct=3 / weightb=1 / open_gop=0 / weightp=2 / keyint=250 / keyint_min=23 / scenecut=40 / intra_refresh=0 / rc=2pass / mbtree=0 / bitrate=11016 / ratetol=1.0 / qcomp=0.70 / qpmin=0 / qpmax=69 / qpstep=4 / cplxblur=20.0 / qblur=0.5 / ip_ratio=1.40 / pb_ratio=1.30 / aq=2:1.00
Language : English
Default : Yes
Forced : Yes
Audio #1
ID : 2
Format : AC-3
Format/Info : Audio Coding 3
Mode extension : CM (complete main)
Format settings, Endianness : Big
Codec ID : A_AC3
Duration : 1h 30mn
Bit rate mode : Constant
Bit rate : 384 Kbps
Channel(s) : 6 channels
Channel positions : Front: L C R, Side: L R, LFE
Sampling rate : 48.0 KHz
Bit depth : 16 bits
Compression mode : Lossy
Stream size : 249 MiB (3%)
Title : AC3 5.1 @ 384 kb/s [R5]
Language : Russian
Default : Yes
Forced : Yes
Audio #2
ID : 3
Format : DTS
Format/Info : Digital Theater Systems
Mode : 16
Format settings, Endianness : Big
Codec ID : A_DTS
Duration : 1h 30mn
Bit rate mode : Constant
Bit rate : 1 509 Kbps
Channel(s) : 6 channels
Channel positions : Front: L C R, Side: L R, LFE
Sampling rate : 48.0 KHz
Bit depth : 24 bits
Compression mode : Lossy
Delay relative to video : 11ms
Stream size : 977 MiB (12%)
Title : DTS 5.1 @ 1536 kb/s
Language : English
Default : No
Forced : No
Text
ID : 4
Format : UTF-8
Codec ID : S_TEXT/UTF8
Codec ID/Info : UTF-8 Plain Text
Title : Full
Language : English
Default : No
Forced : No
Menu
00:00:00.000 : Chapter 01
00:04:29.059 : Chapter 02
00:09:05.044 : Chapter 03
00:15:32.473 : Chapter 04
00:20:00.365 : Chapter 05
00:25:54.052 : Chapter 06
00:31:11.661 : Chapter 07
00:35:03.768 : Chapter 08
00:39:31.702 : Chapter 09
00:46:27.117 : Chapter 10
00:50:11.007 : Chapter 11
00:55:13.101 : Chapter 12
00:59:34.404 : Chapter 13
01:05:37.642 : Chapter 14
01:10:14.542 : Chapter 15
01:14:26.962 : Chapter 16
01:30:33.219 : Chapter 17

Скриншоты

Скачать

Скачать торрент!

Как скачивать? · Что такое торрент? · Рейтинг и ограничения

Сайт не распространяет и не хранит электронные версии произведений, а лишь предоставляет доступ к создаваемому пользователями каталогу ссылок на торрент-файлы, которые содержат только списки хеш-сумм

[Профиль] [ЛС]
Показать сообщения:    
Ответить на тему

Текущее время: Сегодня 10:08

Часовой пояс: GMT + 4



Вы не можете начинать темы
Вы не можете отвечать на сообщения
Вы не можете редактировать свои сообщения
Вы не можете удалять свои сообщения
Вы не можете голосовать в опросах
Вы не можете прикреплять файлы к сообщениям
Вы не можете скачивать файлы